Welcome Guest ( Log In | Register )

 
Reply to this topicStart new topic
> Brujeria - Rainichi Kinen Ban Japan Edition 2020 [compilation] (2020), Death Metal/Grindcore (D)
post Mar 29 2022, 21:52:41
Post #1

Сволочь обыкновенная
**************
Group: Металариец
Posts: 3,003
Releases: 186
From: Брест
On Forums: 14 years 5 months
Thanks: 4799 time(s)
Belarus


(IMG:https://metalarea.org/images/audiocovers/2022_Mar/acov_tid362867_thumb.jpg)

*Artist: Brujeria
*Album: Rainichi Kinen Ban Japan Edition 2020 [compilation]
*Year: 2020
*Genre: Death Metal/Grindcore
*Country: International (IMG:https://metalarea.org/forum/style_images/flags/International.png)
*Format: mp3@CBR320kbps
*Size: 74MB

Tracklist:
01. Viva Presidente Trump! 03:31
02. Pared De Muerte 02:10
03. Amaricon Czar 03:46
04. Lord Nazi Ruso 03:08
05. Angel De La Frontera (Live) 03:11
06. Satongo (Live) 03:41
07. Viva Presidente Trump! (Live) 02:51
******************************
Total playing time: 22:18

Extended info
FLAC Rip, Full scans included

Сборка EP и неизданных концертных треков.
Полное название Rainichi Kinen Ban Japan Edition 2020, или сокращенно Japan Edition 2020.

Limited to 1500 copies.
Track 1 and 2: from the 7"EP "Viva Presidente Trump!"
Track 3 and 4: from the 7"EP "Amaricon Czar"
Track 5, 6 and 7: Live San Antonio, Texas January 2017, USA
Booklet with the texts of the EP tracks and text sheet with the titles of the live tracks.
Including a sticker with a picture of the front cover of the "Viva Presidente Trump!" EP
Licensed from NUCLEAR BLAST ENTERTAINMENT


Technical info
(IMG:https://metalarea.org/images/spectrogram/2022_Mar/ae7e3195d9f90fa4d1d63aaaa5193898.png)
Input File: 01 - Viva Presidente Trump!.mp3
Channels : 2
Sample Rate : 44100
Precision : 16-bit
Duration : 00:03:32.52 = 9372176 samples = 15939.1 CDDA sectors
File Size : 9.07M
Bit Rate : 341k
Sample Encoding: MPEG audio (layer I, II or III)
Comments :
Title=Viva Presidente Trump!
Artist=Brujeria
Album=Japan Edition 2020
Tracknumber=1
Year=2020



Register


Go to the top of the page
  Insert nick Quick quote
+Quote Post

Reply to this topicStart new topic
2 User(s) are reading this topic (2 Guests and 0 Anonymous Users)
0 Members:

 



- Lo-Fi Version Support form
Copyrights and abuse reports form
Time is now: 25th September 2022 - 11:33:47