Welcome Guest ( Log In | Register )

Объявления

* gmail.com упорно продолжает считать почту с нас "unsolicited" и отбивает в том числе и письма активации, поэтому просьба использовать альтернативные почтовые ящики.
------------
* gmail.com continues reject all mail from us as "unsolicited" (activation mails too) therefore please use alternate mail servers.
> Mystic Charm - Endless Sickness [compilation] (2022), Death/Doom Metal (D5)
post Mar 30 2022, 04:02:32
Post #1

Правь статус, ####!111
**************
Group: Металариец
Posts: 9,312
Releases: 7542
On Forums: 13 years 8 months
Thanks: 133418 time(s)
Italy


(IMG:https://metalarea.org/images/audiocovers/2022_Mar/acov_tid362874_thumb.jpg)

*Artist: Mystic Charm
*Album: Endless Sickness [compilation]
*Year: 2022
*Genre: Death/Doom Metal
*Country: Netherlands (IMG:https://metalarea.org/forum/style_images/flags/Netherlands.png)
*Format: mp3@CBR320kbps
*Size: 91MB

Tracklist:
1.Saved Soul 04:25
2.Faith Means No Just 04:41
3.Mystic Charms 05:30
4.Frozen Feelings 04:43
5.Lost Empire 06:03
6.Endless Sickness 04:13
7.No Progress 05:35
8.Sacred Cremation 05:46
******************************
Total playing time: 40:56



Extended info
Side 1: Endless Sickness demo 1992
Side 2: Lost Empire EP 1993 / bonus tracks


Technical info
(IMG:https://metalarea.org/images/spectrogram/2022_Mar/70e9e392f79955592c3fb2573303829e.png)
Input File: 06 - Endless Sickness (EP Version).mp3
Channels : 2
Sample Rate : 44100
Precision : 16-bit
Duration : 00:04:13.85 = 11194741 samples = 19038.7 CDDA sectors
File Size : 10.4M
Bit Rate : 328k
Sample Encoding: MPEG audio (layer I, II or III)
Comments :
Title=Endless Sickness (EP Version)
Artist=Mystic Charm
Album=Endless Sickness
Tracknumber=06
Year=2022
Genre=Death/Doom Metal



Register


Go to the top of the page
  Insert nick Quick quote
+Quote Post
 
Start new topic
Replies (1 - 2)
post Mar 30 2022, 09:11:35
Post #2

Правь статус, ####!111
**************
Group: Металариец
Posts: 9,312
Releases: 7542
On Forums: 13 years 8 months
Thanks: 133418 time(s)
Italy


FLAC 307MB
Register


Go to the top of the page
  Insert nick Quick quote
+Quote Post
post Apr 24 2022, 11:03:17
Post #3

Group: Дух
Posts: 5
Releases: 0
On Forums: 7 years 3 months
Thanks: 1 time(s)
Unknown


QUOTE(kefka @ Mar 30 2022, 11:11:35) *
FLAC 307MB

Can I request for a re-up?
Go to the top of the page
  Insert nick Quick quote
+Quote Post

Reply to this topicStart new topic
1 User(s) are reading this topic (1 Guests and 0 Anonymous Users)
0 Members:

 



- Lo-Fi Version Support form
Copyrights and abuse reports form
Time is now: 23rd July 2024 - 21:53:33