Welcome Guest ( Log In | Register )

Объявления

* gmail.com упорно продолжает считать почту с нас "unsolicited" и отбивает в том числе и письма активации, поэтому просьба использовать альтернативные почтовые ящики.
------------
* gmail.com continues reject all mail from us as "unsolicited" (activation mails too) therefore please use alternate mail servers.
> Lords Of The Trident - The Offering (2022), Heavy Metal (D6)
post Mar 31 2022, 11:30:31
Post #1

Serial Uploader
Group Icon
Group: V.I.P
Posts: 42,413
Releases: 40482
From: Lithuania
On Forums: 15 years 10 months
Thanks: 517423 time(s)
Lithuania


(IMG:https://metalarea.org/images/audiocovers/2022_Mar/acov_tid362941_thumb.jpg)

*Artist: Lords Of The Trident
*Album: The Offering
*Year: 2022
*Genre: Heavy Metal
*Country: United States (IMG:https://metalarea.org/forum/style_images/flags/United%20States.png)
*Format: mp3@CBR320kbps
*Size: 140MB

Tracklist:
1. Legend 06:21
2. Acolyte 04:29
3. Charlatan 04:08
4. Feed the Wolves 03:30
5. Carry the Weight 04:01
6. Offering to the Void 04:32
7. Champion 05:12
8. The Invitation 00:43
9. Dance of Control 04:17
10. These Tower Walls 04:45
11. Power of Evil 05:41
12. The Blade 05:25
13. Heart of Ashes 07:12
******************************
Total playing time: 1:00:16

(IMG:https://metalarea.org/images/myspace.png)



(IMG:https://metalarea.org/images/youtube.png)

Technical info
(IMG:https://metalarea.org/images/spectrogram/2022_Mar/0e772cb2021541732f54ab4c26e02645.png)
Input File: 02 - Acolyte.mp3
Channels : 2
Sample Rate : 44100
Precision : 16-bit
Duration : 00:04:29.00 = 11862900 samples = 20175 CDDA sectors
File Size : 10.9M
Bit Rate : 325k
Sample Encoding: MPEG audio (layer I, II or III)
Comments :
Title=Acolyte
Artist=Lords of the Trident
Album=The Offering
Tracknumber=2
Year=2022-04-01
Genre=Metal
Discnumber=1



Register


Go to the top of the page
  Insert nick Quick quote
+Quote Post
 
Start new topic
Replies (1 - 4)
post Apr 1 2022, 11:20:15
Post #2

Восемь Литров
********
Group: Металариец
Posts: 835
Releases: 0
On Forums: 14 years 9 months
Thanks: 210 time(s)
Ukraine


спасибо за новый альбом!!!
Go to the top of the page
  Insert nick Quick quote
+Quote Post
post Apr 16 2022, 09:30:06
Post #3

Перевозчик
**************
Group: Металариец
Posts: 3,626
Releases: 0
On Forums: 15 years 9 months
Thanks: 798 time(s)
Russian Federation


Превьюшка вполне годная. Надо целиком смотреть.
Go to the top of the page
  Insert nick Quick quote
+Quote Post
post Oct 13 2022, 10:32:25
Post #4

Наливай!
**************
Group: Металариец
Posts: 6,422
Releases: 27
From: Москва-Бибирево
On Forums: 16 years 1 month
Thanks: 3338 time(s)
Russian Federation


Перезалейте
Go to the top of the page
  Insert nick Quick quote
+Quote Post
post Feb 21 2023, 08:00:41
Post #5

Наливай!
**************
Group: Металариец
Posts: 6,422
Releases: 27
From: Москва-Бибирево
On Forums: 16 years 1 month
Thanks: 3338 time(s)
Russian Federation


Отличный Хэви. Чуть затянут альбом потвремени, но не критично. Остается на переслушку
Go to the top of the page
  Insert nick Quick quote
+Quote Post

Reply to this topicStart new topic
1 User(s) are reading this topic (1 Guests and 0 Anonymous Users)
0 Members:

 



- Lo-Fi Version Support form
Copyrights and abuse reports form
Time is now: 23rd April 2024 - 15:37:31