Welcome Guest ( Log In | Register )

> Felvum - Fullmoon Mysticism [ep] (2022), Black Metal
post Apr 12 2022, 16:51:34
Post #1
BAN
Banned till
Dec 8 2023, 22:08:00



(IMG:http://metalarea.org/images/audiocovers/2022_Apr/acov_tid363528_thumb.jpg)

*Artist: Felvum
*Album: Fullmoon Mysticism [ep]
*Year: 2022
*Genre: Black Metal
*Country: Ukraine (IMG:http://metalarea.org/forum/style_images/flags/Ukraine.png)
*Format: mp3@CBR320kbps
*Size: 35MB

Tracklist:
1. Forest Unknown 03:38
2. Blooming 03:38
3. Fullmoon Mysticism 03:50
4. Spell of Purity 03:19
******************************
Total playing time: 14:25



Extended info
Line - up:

Wanja Mamykin - Bass, Drums, Production (rtva Vod)
Crying Orc - Guitars, Songwriting (Këkht Aräkh, ex-Cuckoo's Nest, ex-Yokai)
Felnone - Vocals, Lyrics


Technical info
(IMG:http://metalarea.org/images/spectrogram/2022_Apr/8090e31f508363d7acf1ac019fefb720.png)
Input File: 04. Spell of Purity.mp3
Channels : 2
Sample Rate : 44100
Precision : 16-bit
Duration : 00:03:19.51 = 8798435 samples = 14963.3 CDDA sectors
File Size : 7.98M
Bit Rate : 320k
Sample Encoding: MPEG audio (layer I, II or III)
Comments :
Title=Spell of Purity
Artist=Felvum
Album=Fullmoon Mysticism (EP)
Tracknumber=4
Year=2022
Genre=138



Register


Go to the top of the page
  Insert nick Quick quote
+Quote Post
 
Start new topic
Replies (1 - 4)
post May 22 2022, 15:54:58
Post #2

antithesis
**************
Group: Металариец
Posts: 3,905
Releases: 36
From: VRN
On Forums: 13 years 6 months
Thanks: 2626 time(s)
Russian Federation


хорошечная труёвина, по лекалам отцов. и снова Украина. как и Fakel - Hateful Flame Of Blasphemy [ep] (2021). (IMG:style_emoticons/default/true_black.gif)


Thanks:
(1) philfoden,
Go to the top of the page
  Insert nick Quick quote
+Quote Post
post May 23 2022, 10:51:33
Post #3
BAN
Banned till
Dec 23 2023, 17:56:05



Не плохо и не хорошо. Скорее - не интересно. Стопяццотая калька с отцов. Послушать можно, хронометраж располагает. В копилку вряд ли.
Go to the top of the page
  Insert nick Quick quote
+Quote Post
post May 23 2022, 11:14:04
Post #4

I hate you all
**************
Group: Металариец
Posts: 3,340
Releases: 97
From: Ukraine
On Forums: 16 years 6 months
Thanks: 8139 time(s)
Ukraine


ссылки умерли , перезалейте плз .
Go to the top of the page
  Insert nick Quick quote
+Quote Post
post May 23 2022, 12:04:41    Сейчас играет: Planetshine - Frozen Eternity
Post #5

antithesis
**************
Group: Металариец
Posts: 3,905
Releases: 36
From: VRN
On Forums: 13 years 6 months
Thanks: 2626 time(s)
Russian Federation


ЦИТАТА(rimfrost @ May 23 2022, 15:14:04) *
ссылки умерли , перезалейте плз .

Register


Thanks:
Go to the top of the page
  Insert nick Quick quote
+Quote Post

Reply to this topicStart new topic
1 User(s) are reading this topic (1 Guests and 0 Anonymous Users)
0 Members:

 



- Lo-Fi Version Support form
Copyrights and abuse reports form
Time is now: 2nd December 2023 - 05:54:45