Welcome Guest ( Log In | Register )

 
Reply to this topicStart new topic
> Attest - Seething Threats Of Woven Phobias [ep] (2021), Black Metal
post Apr 13 2022, 22:12:56
Post #1

Девять Литров
*********
Group: Металариец
Posts: 997
Releases: 263
On Forums: 3 years 8 months
Thanks: 4441 time(s)
Russian Federation


(IMG:https://metalarea.org/images/audiocovers/2022_Apr/acov_tid363581_thumb.jpg)

*Artist: Attest
*Album: Seething Threats Of Woven Phobias [ep]
*Year: 2021
*Genre: Black Metal
*Country: United States (IMG:https://metalarea.org/forum/style_images/flags/United%20States.png)
*Format: mp3@CBR320kbps
*Size: 55MB

Tracklist:
1. Arrival 03:12
2. Your Voice Is a Weapon 03:08
3. Infernal Psychosis 03:32
4. The Endless Pale 03:30
5. Everyone Is a Threat 03:02
6. The Chaos of Movement 03:18
7. Stone Path (The Bridge) 03:40
******************************
Total playing time: 23:22


(IMG:https://metalarea.org/images/youtube.png)



Technical info
(IMG:https://metalarea.org/images/spectrogram/2022_Apr/b01628858974474d2d6b9fd635eb03b9.png)
Input File: 02 Your Voice Is A Weapon.mp3
Channels : 2
Sample Rate : 44100
Precision : 16-bit
Duration : 00:03:08.17 = 8298297 samples = 14112.7 CDDA sectors
File Size : 7.64M
Bit Rate : 325k
Sample Encoding: MPEG audio (layer I, II or III)
Comments :
Title=Your Voice Is A Weapon
Artist=Attest
Album=Seething Threats of Woven Phobias
Tracknumber=2
Year=2021



Register


Go to the top of the page
  Insert nick Quick quote
+Quote Post

Reply to this topicStart new topic
1 User(s) are reading this topic (1 Guests and 0 Anonymous Users)
0 Members:

 



- Lo-Fi Version Support form
Copyrights and abuse reports form
Time is now: 4th February 2023 - 16:55:23