Welcome Guest ( Log In | Register )

Объявления

* gmail.com упорно продолжает считать почту с нас "unsolicited" и отбивает в том числе и письма активации, поэтому просьба использовать альтернативные почтовые ящики.
------------
* gmail.com continues reject all mail from us as "unsolicited" (activation mails too) therefore please use alternate mail servers.
> Analepsy - Quiescence (2022), Brutal Death Metal (D4)
post Apr 14 2022, 13:40:01
Post #1

Serial Uploader
Group Icon
Group: V.I.P
Posts: 42,940
Releases: 41001
From: Lithuania
On Forums: 16 years 1 month
Thanks: 526893 time(s)
Lithuania


(IMG:https://metalarea.org/images/audiocovers/2022_Apr/acov_tid363605_thumb.jpg)

*Artist: Analepsy
*Album: Quiescence
*Year: 2022
*Genre: Brutal Death Metal
*Country: Portugal (IMG:https://metalarea.org/forum/style_images/flags/Portugal.png)
*Format: mp3@CBR320kbps
*Size: 88MB

Tracklist:
01. Locus of Dawning 04:51
02. Impending Subversion 03:30
03. Elapsing Permanence 03:10
04. Accretion Collision 03:21
05. Stretched and Devoured 04:39
06. Converse Condition 03:19
07. Fractured Continuum 03:12
08. Spasmodic Dissonance 03:17
09. Edge of Chaos 04:40
10. Quiescence 03:35
******************************
Total playing time: 37:34


Preview 2

(IMG:https://metalarea.org/images/youtube.png)

Technical info
(IMG:https://metalarea.org/images/spectrogram/2022_Apr/515534b4c0a65308595cb8e262a6e03a.png)
Input File: 02 - Analepsy - Impending Subversion.mp3
Channels : 2
Sample Rate : 44100
Precision : 16-bit
Duration : 00:03:29.12 = 9222236 samples = 15684.1 CDDA sectors
File Size : 8.63M
Bit Rate : 330k
Sample Encoding: MPEG audio (layer I, II or III)
Comments :
Title=Impending Subversion
Artist=Analepsy
Album=Quiescence
Tracknumber=2/10/10
Year=2022
Discnumber=1/1/1



Register


Go to the top of the page
  Insert nick Quick quote
+Quote Post
 
Start new topic
Replies (1 - 7)
post Apr 14 2022, 15:46:06
Post #2

тебе 33, а ты все реверсами балуешься
**************
Group: Металариец
Posts: 2,163
Releases: 4
On Forums: 15 years 11 months
Thanks: 794 time(s)
Russian Federation


Не разочаровывают (IMG:style_emoticons/default/20.gif)


Thanks:
Go to the top of the page
  Insert nick Quick quote
+Quote Post
post Apr 14 2022, 19:04:53
Post #3

...
**************
Group: Металариец
Posts: 5,191
Releases: 513
From: МОРсквы
On Forums: 17 years 9 months
Thanks: 7864 time(s)
Russian Federation


бодрый музон, правда метраж немного великоват, получаса было бы достаточно.


Thanks:
(1) judaz,
Go to the top of the page
  Insert nick Quick quote
+Quote Post
post Apr 16 2022, 08:09:25
Post #4

Правь статус, ####!111
**************
Group: Металариец
Posts: 2,790
Releases: 0
From: APATIN, SERBIA, АПАТИН, СЕРБИЯ
On Forums: 16 years 8 months
Thanks: 8919 time(s)



Flac

Register


Go to the top of the page
  Insert nick Quick quote
+Quote Post
post Apr 16 2022, 13:12:41
Post #5

Full-of-Hate
**************
Group: Металариец
Posts: 5,804
Releases: 0
From: Moscow
On Forums: 15 years 1 week
Thanks: 7171 time(s)
Russian Federation


Что-то уж больно компромиссное и мягкое звучание, особенно для продающих себя под вывеской Brutal Death. Модерновый фантик от людей, родившихся после 2000 года.
Не музыка, а наплевать и растереть. Фублть!

Кто-нибудь, поставьте этим португальским говнарям Consume The Forsaken. Пусть послушают как взрослые дяди могут держать инструменты в руках.
Go to the top of the page
  Insert nick Quick quote
+Quote Post
post Apr 20 2022, 10:45:30
Post #6

Austenite
**************
Group: Металариец
Posts: 3,193
Releases: 1
From: Менск
On Forums: 13 years 8 months
Thanks: 1651 time(s)
Madagascar


Хороший BruDM со всеми коронными ходами стиля кроме изменения темпа. Жирный сочный модэрновый звук, слэма почти нет, но есть направленность в прог. Хронометража мне не хватило.
10/10

FullofHate Спс за наводку, Consume The Forsaken другой под-стиль.


Thanks:
Go to the top of the page
  Insert nick Quick quote
+Quote Post
post Apr 26 2022, 16:02:12
Post #7

кручу наждак
**************
Group: Металариец
Posts: 6,622
Releases: 111
From: Самара
On Forums: 14 years 2 months
Thanks: 5170 time(s)
Russian Federation


Несколько песен прям на ура зашли.


Thanks:
(2) andris, Foneg,
Go to the top of the page
  Insert nick Quick quote
+Quote Post
post May 6 2022, 21:23:08
Post #8

Два Литра
**
Group: Завсегдатай
Posts: 127
Releases: 0
On Forums: 16 years 1 month
Thanks: 24 time(s)
Russian Federation


Смачный жирный саунд (мой любимый звук!!! (IMG:style_emoticons/default/pray.gif) ) прямо таки нормально зашло! Первые 5 треков реально на ура! альбом по пятибалке на твёрдую четверку!!! (IMG:style_emoticons/default/headcrab.png) да и местами сочнючие соляки (IMG:style_emoticons/default/headcrab.png) !!!!!


Thanks:
Go to the top of the page
  Insert nick Quick quote
+Quote Post

Reply to this topicStart new topic
1 User(s) are reading this topic (1 Guests and 0 Anonymous Users)
0 Members:

 



- Lo-Fi Version Support form
Copyrights and abuse reports form
Time is now: 14th July 2024 - 13:58:48