Welcome Guest ( Log In | Register )

> Null Valley - Null Valley (2022), Industrial/Death Metal
post Apr 14 2022, 14:11:38
Post #1

Serial Uploader
Group Icon
Group: V.I.P
Posts: 39,889
Releases: 38004
From: Lithuania
On Forums: 14 years 9 months
Thanks: 478141 time(s)
Lithuania


(IMG:https://metalarea.org/images/audiocovers/2022_Apr/acov_tid363606_thumb.jpg)

*Artist: Null Valley
*Album: Null Valley
*Year: 2022
*Genre: Industrial/Death Metal
*Country: United States (IMG:https://metalarea.org/forum/style_images/flags/United%20States.png)
*Format: mp3@CBR320kbps
*Size: 68MB

Tracklist:
01. Thought is a Virus 03:12
02. Invisible Ships 04:15
03. Devour by Context 05:17
04. Systemic 02:08
05. Son with Horns 04:17
06. Path of Least Existence 05:02
07. Die High 01:53
08. Anthropocene 03:58
******************************
Total playing time: 30:02


Preview 2

Technical info
(IMG:https://metalarea.org/images/spectrogram/2022_Apr/065e67524df0970186d4f6eecff2c535.png)
Input File: 02. Invisible Ships.mp3
Channels : 2
Sample Rate : 44100
Precision : 16-bit
Duration : 00:04:15.08 = 11248852 samples = 19130.7 CDDA sectors
File Size : 10.3M
Bit Rate : 322k
Sample Encoding: MPEG audio (layer I, II or III)
Comments :
Title=Invisible Ships
Artist=Null Valley
Album=Null Valley
Tracknumber=2
Year=2022
Discnumber=1/1



Register


Go to the top of the page
  Insert nick Quick quote
+Quote Post
 
Start new topic
Replies (1 - 3)
post Apr 14 2022, 14:57:29
Post #2

Шесть Литров
******
Group: Металариец
Posts: 500
Releases: 0
From: Мурманск
On Forums: 12 years 11 months
Thanks: 681 time(s)
Russian Federation


Go to the top of the page
  Insert nick Quick quote
+Quote Post
post Mar 17 2023, 02:07:38
Post #3

Group: Подсевший
Posts: 10
Releases: 0
On Forums: 12 years 10 months
Thanks: 3 time(s)
United States


Can someone add a new link? Thanks!
Go to the top of the page
  Insert nick Quick quote
+Quote Post
post Mar 18 2023, 20:08:51
Post #4

Мегаманьяк
***********
Group: Металариец
Posts: 1,731
Releases: 0
On Forums: 14 years 1 month
Thanks: 753 time(s)
South Korea


QUOTE(Dripzzz @ Mar 17 2023, 04:07:38) *
Can someone add a new link? Thanks!


1. 320 kbps and FLAC can be downloaded from the web:
Register


2. Each track previewable or downloadable at 320 kbps for free (or purchase) if you want to preview or miss some tracks:
Register


[All credits go to the band and the posters].
Go to the top of the page
  Insert nick Quick quote
+Quote Post

Reply to this topicStart new topic
2 User(s) are reading this topic (2 Guests and 0 Anonymous Users)
0 Members:

 



- Lo-Fi Version Support form
Copyrights and abuse reports form
Time is now: 22nd March 2023 - 23:09:51