Welcome Guest ( Log In | Register )

> Aevum - Glitch (2022), Symphonic Metal (D8)
post Apr 14 2022, 15:22:57
Post #1

Правь статус, ####!111
**************
Group: Металариец
Posts: 4,723
Releases: 3155
On Forums: 12 years 2 months
Thanks: 56858 time(s)
Russian Federation


(IMG:https://metalarea.org/images/audiocovers/2022_Apr/acov_tid363609_thumb.jpg)

*Artist: Aevum
*Album: Glitch
*Year: 2022
*Genre: Symphonic Metal
*Country: Italy (IMG:https://metalarea.org/forum/style_images/flags/Italy.png)
*Format: mp3@CBR320kbps
*Size: 121MB

Tracklist:
1.Lullaby 03:04
2.Black Swan Theory 03:26
3.Desire 04:22
4.What's in a Name 03:37
5.Holy Alix 03:18
6.The Traitor 03:42
7.7 04:05
8.Glitch 04:38
9.La Signora dei Libri 03:58
10.Lucretia 03:38
11.#Jump 03:38
12.Wings Over the Ocean 04:00
13.Austerlitz 04:10
14.I Wish I Had More Time 03:26
******************************
Total playing time: 53:02



Technical info
(IMG:https://metalarea.org/images/spectrogram/2022_Apr/c5811e55e5591eac790139e73e3f0ee7.png)
Input File: 05 - Holy Alix.mp3
Channels : 2
Sample Rate : 44100
Precision : 16-bit
Duration : 00:03:18.07 = 8735063 samples = 14855.5 CDDA sectors
File Size : 8.04M
Bit Rate : 325k
Sample Encoding: MPEG audio (layer I, II or III)
Comments :
Title=Holy Alix
Artist=Aevum
Album=Glitch
Tracknumber=05
Year=2022
Genre=Symphonic Metal



Register


Go to the top of the page
  Insert nick Quick quote
+Quote Post
 
Start new topic
Replies (1 - 1)
post Apr 14 2022, 19:40:25
Post #2

Up From The Grave
*********
Group: Металариец
Posts: 916
Releases: 125
From: Minsk
On Forums: 13 years 6 months
Thanks: 2506 time(s)
Belarus




Thanks:
Go to the top of the page
  Insert nick Quick quote
+Quote Post

Reply to this topicStart new topic
1 User(s) are reading this topic (1 Guests and 0 Anonymous Users)
0 Members:

 



- Lo-Fi Version Support form
Copyrights and abuse reports form
Time is now: 28th January 2023 - 14:13:54