Welcome Guest ( Log In | Register )

> И неформату есть предел.

Рэп/хип-хоп/шансон/поп удаляются. Для них есть свои порталы.

 
Reply to this topicStart new topic
> Various Artists - Godflesh: Tribute [tribute] (2003), Industrial Metal
post Apr 14 2022, 20:14:32
Post #1

Маньяк
**********
Group: Металариец
Posts: 1,342
Releases: 64
From: Санкт-Петербург
On Forums: 16 years 6 months
Thanks: 3553 time(s)
Russian Federation


(IMG:http://metalarea.org/images/audiocovers/2022_Apr/acov_tid363630_thumb.jpg)

*Artist: Various Artists
*Album: Godflesh: Tribute [tribute]
*Year: 2003
*Genre: Industrial Metal
*Country: Many (IMG:http://metalarea.org/forum/style_images/flags/Many.png)
*Format: mp3@CBR320kbps
*Size: 304MB

Tracklist:
CD1:
01. Kill The Thrill - Us And Them 05:24
02. Antigama - Anything Is Mine 04:27
03. Weeping Birth - Like Rats 04:30
04. Dee N Dee - Crush My Soul 04:21
05. Counterforce - Angel Domain 02:56
06. Erling Solem - Wounds 04:06
07. Behold The Living Corpse - Go Spread Your Wings 12:55
08. Set In Stone - Love Is A Dog From Hell 07:59
09. Are You God? - Mantra 04:12
10. Woden - Xnoybis 05:52
11. Thralldom - Christbait Rising 07:47
12. Pedigree - Hunter 06:05
13. Khaos Divine - Impure (Pure 1 + Pure 2 Remix) 08:13
CD2:
01. Blut Aus Nord - Mighty Trust Krusher 05:19
02. Grenouer vs. Cod - I Me Mine 03:51
03. Infection Code - Nail 04:39
04. Fragment King feat. Leech - If I Could Only Be What You Want 04:35
05. Diabolus Ex Machina - Mothra 04:26
06. Cylens - Pulp 04:29
07. Fuck The Facts - Devastator 03:49
08. Begotten - Life Is Easy 03:21
09. Cthuwulf - Avalanche Master 01:13
10. The Skeletonz - Angel Domain 03:39
11. Kamp Chaos - Xnoybis - Pulp 03:31
12. Condition - Gift From Heaven 05:58
13. Prophelation - Mothra 05:07
******************************
Total playing time: 2:12:43

Technical info
(IMG:http://metalarea.org/images/spectrogram/2022_Apr/847ff7e8451f260d452e51bfd71db9c7.png)
Input File: 08 - Begotten - Life Is Easy.mp3
Channels : 2
Sample Rate : 44100
Precision : 16-bit
Duration : 00:03:21.03 = 8865247 samples = 15077 CDDA sectors
File Size : 8.04M
Bit Rate : 320k
Sample Encoding: MPEG audio (layer I, II or III)
Comments :
Title=Begotten - Life Is Easy
Artist=Compilation
Album=Godflesh: Tribute CD2
Tracknumber=08
Year=2003
Genre=Industrial Metal



Register


Thanks:
Go to the top of the page
  Insert nick Quick quote
+Quote Post

Reply to this topicStart new topic
1 User(s) are reading this topic (1 Guests and 0 Anonymous Users)
0 Members:

 



- Lo-Fi Version Support form
Copyrights and abuse reports form
Time is now: 29th November 2022 - 12:45:30