Welcome Guest ( Log In | Register )

> И неформату есть предел.

Рэп/хип-хоп/шансон/поп удаляются. Для них есть свои порталы.

 
Reply to this topicStart new topic
> Contingence - Dominion (1995), Industrial Metal
post Apr 15 2022, 11:37:53
Post #1

Сволочь обыкновенная
**************
Group: Металариец
Posts: 3,071
Releases: 201
From: Брест
On Forums: 14 years 7 months
Thanks: 5066 time(s)
Belarus


(IMG:https://metalarea.org/images/audiocovers/2022_Apr/acov_tid363649_thumb.jpg)

*Artist: Contingence
*Album: Dominion
*Year: 1995
*Genre: Industrial Metal
*Country: United States (IMG:https://metalarea.org/forum/style_images/flags/United%20States.png)
*Format: mp3@CBR320kbps
*Size: 128MB

Tracklist:
01. Synopsis II.C5.IX-V 05:25
02. Fusion 05:12
03. The Schismastisist 04:49
04. Bioconfigurations 04:03
05. Fellacious Doctrine 07:14
06. Mordant Atrophy 05:20
07. Nocturnal Sedation 04:35
08. Compulsion To Kill 04:28
09. Illusion Of The Beast 05:28
10. Incarceration Unavowed 06:23
******************************
Total playing time: 52:57

Extended info
FLAC-Rip + Scans
Deprogrammed Productions – DPRG-0001


Technical info
(IMG:https://metalarea.org/images/spectrogram/2022_Apr/ddcb239b837294bd34fd0ef9f8aa5e19.png)
Input File: 01 - Synopsis II.C5.IX-V.mp3
Channels : 2
Sample Rate : 44100
Precision : 16-bit
Duration : 00:05:25.61 = 14359313 samples = 24420.6 CDDA sectors
File Size : 13.0M
Bit Rate : 320k
Sample Encoding: MPEG audio (layer I, II or III)



Register


Go to the top of the page
  Insert nick Quick quote
+Quote Post

Reply to this topicStart new topic
1 User(s) are reading this topic (1 Guests and 0 Anonymous Users)
0 Members:

 



- Lo-Fi Version Support form
Copyrights and abuse reports form
Time is now: 29th November 2022 - 11:32:38