Welcome Guest ( Log In | Register )

> Desecresy - Unveil In The Abyss (2022), Death Metal (D)
post Apr 19 2022, 15:18:54
Post #1

Serial Uploader
Group Icon
Group: V.I.P
Posts: 39,289
Releases: 37423
From: Lithuania
On Forums: 14 years 5 months
Thanks: 469262 time(s)
Lithuania


(IMG:https://metalarea.org/images/audiocovers/2022_Apr/acov_tid363781_thumb.jpg)

*Artist: Desecresy
*Album: Unveil In The Abyss
*Year: 2022
*Genre: Death Metal
*Country: Finland (IMG:https://metalarea.org/forum/style_images/flags/Finland.png)
*Format: mp3@CBR320kbps
*Size: 98MB

Tracklist:
01. Rivers of the Nether Realm 06:53
02. Echo Beyond Time 05:40
03. Cult of Troglodytes 05:40
04. Staring of the Infinity 05:15
05. Cataclysmic Phenomena 08:12
06. Necrolevitation 05:49
07. Dissolve Through Obscure Worlds 05:23
******************************
Total playing time: 42:52

(IMG:https://metalarea.org/images/myspace.png)


(IMG:https://metalarea.org/images/youtube.png)

Technical info
(IMG:https://metalarea.org/images/spectrogram/2022_Apr/bfe8769f2890d8c4372799472c8fd6f6.png)
Input File: 02. Echo Beyond Time.mp3
Channels : 2
Sample Rate : 44100
Precision : 16-bit
Duration : 00:05:39.59 = 14975787 samples = 25469 CDDA sectors
File Size : 13.6M
Bit Rate : 321k
Sample Encoding: MPEG audio (layer I, II or III)
Comments :
Title=Echo Beyond Time
Artist=Desecresy
Album=Unveiling the Abyss
Tracknumber=2
Year=2022



Register


Go to the top of the page
  Insert nick Quick quote
+Quote Post
 
Start new topic
Replies (1 - 6)
post Apr 20 2022, 16:29:41
Post #2

мизантроп же
**********
Group: Металариец
Posts: 1,237
Releases: 8
From: Москва
On Forums: 15 years 8 months
Thanks: 1221 time(s)
Russian Federation


Хороший альбом. Мощный, вязкий и умеренно мелодичный олдскул. Звук намеренно сделали грязный, для меня это единственный минус.


Thanks:
(1) Occultas,
Go to the top of the page
  Insert nick Quick quote
+Quote Post
post Apr 21 2022, 08:00:10
Post #3

Мегаманьяк
***********
Group: Металариец
Posts: 1,942
Releases: 1
From: APATIN, SERBIA, АПАТИН, СЕРБИЯ
On Forums: 15 years 1 month
Thanks: 5726 time(s)



Flac

Register


Go to the top of the page
  Insert nick Quick quote
+Quote Post
post Apr 24 2022, 16:38:23
Post #4

Два Литра
**
Group: Завсегдатай
Posts: 112
Releases: 7
On Forums: 2 years 7 months
Thanks: 183 time(s)
Unknown


Все как обычно - мрачно и прикольно


Thanks:
(1) Occultas,
Go to the top of the page
  Insert nick Quick quote
+Quote Post
post Aug 16 2022, 01:48:30
Post #5

Шесть Литров
******
Group: Металариец
Posts: 575
Releases: 0
From: Isla de Margarita, Venezuela
On Forums: 3 years 10 months
Thanks: 124 time(s)
Venezuela


320kbps

Register


Thanks:
(1) Occultas,
Go to the top of the page
  Insert nick Quick quote
+Quote Post
post Aug 16 2022, 02:10:54
Post #6

Правь статус, ####!111
**************
Group: Металариец
Posts: 2,174
Releases: 0
On Forums: 13 years 9 months
Thanks: 893 time(s)
Antarctica


ЦИТАТА(DiKobRaZzz @ 20th April 2022 - 18:29:41) *
Хороший альбом. Мощный, вязкий и умеренно мелодичный олдскул. Звук намеренно сделали грязный, для меня это единственный минус.

Ну, грязный звук к олдскулу предъявлять...) Этим он и ценен.
Звучание и мелодии сразу вызывают стояк. Расслушаю уже завтра.
Upd.: Альбом отличнейший! 9/10
Go to the top of the page
  Insert nick Quick quote
+Quote Post
post Aug 16 2022, 06:15:01
Post #7

кручу наждак
**************
Group: Металариец
Posts: 5,800
Releases: 107
From: Самара
On Forums: 12 years 6 months
Thanks: 4549 time(s)
Russian Federation


Фирменный, тяжёлый как могильная плита звук на месте, а ещё соляков стало больше, как мне показалось.


Thanks:
(1) Occultas,
Go to the top of the page
  Insert nick Quick quote
+Quote Post

Reply to this topicStart new topic
2 User(s) are reading this topic (2 Guests and 0 Anonymous Users)
0 Members:

 



- Lo-Fi Version Support form
Copyrights and abuse reports form
Time is now: 30th November 2022 - 08:09:02