Welcome Guest ( Log In | Register )

> И неформату есть предел.

Рэп/хип-хоп/шансон/поп удаляются. Для них есть свои порталы.

> Faun - Pagan (2022), Medieval Folk Rock (D12)
post Apr 21 2022, 11:40:32
Post #1

Serial Uploader
Group Icon
Group: V.I.P
Posts: 38,972
Releases: 37108
From: Lithuania
On Forums: 14 years 3 months
Thanks: 463721 time(s)
Lithuania


(IMG:https://metalarea.org/images/audiocovers/2022_Apr/acov_tid363846_thumb.jpg)

*Artist: Faun
*Album: Pagan
*Year: 2022
*Genre: Medieval Folk Rock
*Country: Germany (IMG:https://metalarea.org/forum/style_images/flags/Germany.png)
*Format: mp3@CBR320kbps
*Size: 142MB

Tracklist:
01. Galdra (feat. Lindy-Fay Hella) 6:10
02. Halloween 3:53
03. Gwydion (feat. Eluveitie) 3:59
04. Wainamoinen 4:02
05. Tamlin 5:49
06. Neun Welten 4:12
07. Lord Randal 2:13
08. Innisfree 4:26
09. Ran 4:38
10. Baldur 3:37
11. Caer 4:07
12. Willow Tree 4:08
13. Zeit der Raben 3:36
14. Anagin 2:06
15. Liam 4:14
******************************
Total playing time: 1:01:10


(IMG:https://metalarea.org/images/youtube.png)

Technical info
(IMG:https://metalarea.org/images/spectrogram/2022_Apr/87eb41fbfd5bf39297401e875f6ece18.png)
Input File: 02 - Halloween.mp3
Channels : 2
Sample Rate : 44100
Precision : 16-bit
Duration : 00:03:53.00 = 10275300 samples = 17475 CDDA sectors
File Size : 9.46M
Bit Rate : 325k
Sample Encoding: MPEG audio (layer I, II or III)
Comments :
Title=Halloween
Artist=Faun
Album=Pagan
Tracknumber=2
Year=2022-04-22
Genre=Pop
Discnumber=1



Register


Go to the top of the page
  Insert nick Quick quote
+Quote Post
 
Start new topic
Replies (1 - 5)
post May 18 2022, 18:15:50
Post #2

к приему виски готов
*********
Group: Металариец
Posts: 914
Releases: 3
From: Украина
On Forums: 13 years 7 months
Thanks: 542 time(s)
Ukraine


Альбом приятен на слух, легкий и мелодичный, без изысков и неожиданностей, с парочкой хитов, и без провальных тем. Короче, нормальный такой faun.
Go to the top of the page
  Insert nick Quick quote
+Quote Post
post May 18 2022, 18:30:18
Post #3

Шесть Литров
******
Group: Металариец
Posts: 651
Releases: 0
On Forums: 15 years 9 months
Thanks: 85 time(s)
Russian Federation


А посоветуйте мне что-нибудь в таком духе, зашел сабж.
Go to the top of the page
  Insert nick Quick quote
+Quote Post
post May 18 2022, 19:22:49
Post #4

к приему виски готов
*********
Group: Металариец
Posts: 914
Releases: 3
From: Украина
On Forums: 13 years 7 months
Thanks: 542 time(s)
Ukraine


ЦИТАТА(KLOP @ May 18 2022, 20:30:18) *
А посоветуйте мне что-нибудь в таком духе, зашел сабж.

всю дискографию можно смело качать, ну, почти всю, и заодно с этими можно ознакомиться:
https://www.youtube.com/watch?v=m7OInIWqjuQ
Qntal - Tristan Und Isolde (2003)


Thanks:
(2) DMIYUR, KLOP,
Go to the top of the page
  Insert nick Quick quote
+Quote Post
post Jun 2 2022, 18:44:30
Post #5

0%Tolerance
**************
Group: Металариец
Posts: 2,100
Releases: 0
On Forums: 10 years 2 weeks
Thanks: 435 time(s)
Unknown


Не откровение. Много такого гото-кельтик рога. Как фон, стафф слушается нормально.
Go to the top of the page
  Insert nick Quick quote
+Quote Post
post Jun 20 2022, 09:17:27
Post #6

Group: Подсевший
Posts: 39
Releases: 0
On Forums: 2 years 11 months
Thanks: 19 time(s)
Unknown


QUOTE(KLOP @ May 18 2022, 19:30:18) *
А посоветуйте мне что-нибудь в таком духе, зашел сабж.

Omnia конечно же, Pagan Folk на мой взгляд их лучший альбом
Register


Thanks:
(1) SAPOGi,
Go to the top of the page
  Insert nick Quick quote
+Quote Post

Reply to this topicStart new topic
2 User(s) are reading this topic (2 Guests and 0 Anonymous Users)
0 Members:

 



- Lo-Fi Version Support form
Copyrights and abuse reports form
Time is now: 3rd October 2022 - 09:35:25