Welcome Guest ( Log In | Register )

> Cosecha Lagrimas - Crisol (2022), Melodic Death Metal
post Apr 23 2022, 16:57:51
Post #1

MDM-Thrash Metal
**************
Group: Металариец
Posts: 12,372
Releases: 1730
From: Одесса
On Forums: 16 years 8 months
Thanks: 40267 time(s)
Ukraine


(IMG:http://metalarea.org/images/audiocovers/2022_Apr/acov_tid363952.jpg)

*Artist: Cosecha Lagrimas
*Album: Crisol
*Year: 2022
*Genre: Melodic Death Metal
*Country: Argentina (IMG:http://metalarea.org/forum/style_images/flags/Argentina.png)
*Format: mp3@CBR320kbps
*Size: 78MB

Tracklist:
1. T2 02:19
2. Elegir 03:38
3. Corazón Flamígero 04:23
4. Lo Mejor de Mí 04:35
5. Acendra 01:22
6. Elevar 04:38
7. 7 Hz 07:01
8. Crisol 05:47
******************************
Total playing time: 33:43



(IMG:http://metalarea.org/images/youtube.png)

Extended info
Pancho Drums
Lucas Bass, Vocals (2007-present)
Juan Guitars (2007-present)
Matias Guitars, Vocals (2007-present)
Emanuel Vocals (2007-present)


Technical info
(IMG:http://metalarea.org/images/spectrogram/2022_Apr/d3e3506cd68fae462184b583d34ce83f.png)
Input File: 02 - Elegir.mp3
Channels : 2
Sample Rate : 44100
Precision : 16-bit
Duration : 00:03:38.34 = 9628926 samples = 16375.7 CDDA sectors
File Size : 8.86M
Bit Rate : 325k
Sample Encoding: MPEG audio (layer I, II or III)
Comments :
Title=Elegir
Artist=Cosecha Lagrimas
Album=Crisol
Tracknumber=2/8
Year=2022



Register


Go to the top of the page
  Insert nick Quick quote
+Quote Post
 
Start new topic
Replies (1 - 3)
post Apr 24 2022, 08:47:51
Post #2

Шесть Литров
******
Group: Металариец
Posts: 566
Releases: 8
From: Kimry, Tver Region
On Forums: 17 years 1 month
Thanks: 1409 time(s)
Russian Federation


Я нашел себе новый рингтон на телефон! Заглавная тема из Терминатора - огонь!


Thanks:
Go to the top of the page
  Insert nick Quick quote
+Quote Post
post Apr 25 2022, 20:08:49
Post #3

Шесть Литров
******
Group: Металариец
Posts: 584
Releases: 1
On Forums: 16 years 11 months
Thanks: 54 time(s)
Russian Federation


у меня такими голосами два алкаша ругаются у подъезда соседнего
Go to the top of the page
  Insert nick Quick quote
+Quote Post
post May 15 2022, 10:53:40
Post #4

Перевозчик
**************
Group: Металариец
Posts: 3,617
Releases: 0
On Forums: 15 years 9 months
Thanks: 797 time(s)
Russian Federation


Какая-то низкопробная самодеятельность.
Go to the top of the page
  Insert nick Quick quote
+Quote Post

Reply to this topicStart new topic
1 User(s) are reading this topic (1 Guests and 0 Anonymous Users)
0 Members:

 



- Lo-Fi Version Support form
Copyrights and abuse reports form
Time is now: 15th April 2024 - 04:58:13