Welcome Guest ( Log In | Register )

> Singularity - Obscured Reality [ep] (2022), Melodic Death Metal (D11)
post Apr 24 2022, 09:56:42
Post #1

MDM-Thrash Metal
**************
Group: Металариец
Posts: 11,205
Releases: 1526
From: Одесса
On Forums: 14 years 10 months
Thanks: 36260 time(s)
Ukraine


(IMG:http://metalarea.org/images/audiocovers/2022_Apr/acov_tid363977_thumb.jpg)

*Artist: Singularity
*Album: Obscured Reality [ep]
*Year: 2022
*Genre: Melodic Death Metal
*Country: Canada (IMG:http://metalarea.org/forum/style_images/flags/Canada.png)
*Format: mp3@CBR320kbps
*Size: 44MB

Tracklist:
1. Arrow of Time 03:55
2. Wrath of the Serpent King 02:51
3. Deus Ex Machina 03:54
4. Before the Ethereal Gates 08:18
******************************
Total playing time: 18:58



(IMG:http://metalarea.org/images/youtube.png)

Extended info
Jon Foreman Bass
Valerie Dawn Vocals
See also: ex-Aiséirí
Pierre Bazin Drums (2012-present)
See also: Aiséirí
Jared McRorie Guitars (lead) (2012-present)
Aidan Lindberg Guitars (lead) (2012-present)


Technical info
(IMG:http://metalarea.org/images/spectrogram/2022_Apr/77a79ce036476cba6ce797d593617881.png)
Input File: 02_singularity_wrath_of_the_serpent_king.mp3
Channels : 2
Sample Rate : 44100
Precision : 16-bit
Duration : 00:02:51.17 = 7548421 samples = 12837.5 CDDA sectors
File Size : 7.28M
Bit Rate : 340k
Sample Encoding: MPEG audio (layer I, II or III)
Comments :
Title=Wrath of the Serpent King
Artist=Singularity
Album=Obscured Reality
Tracknumber=2/4
Year=2022
Discnumber=1/1



Register


Go to the top of the page
  Insert nick Quick quote
+Quote Post
 
Start new topic
Replies (1 - 2)
post May 22 2022, 11:59:12
Post #2

Old School Metal
**************
Group: Металариец
Posts: 4,458
Releases: 0
From: г. Минск
On Forums: 13 years 3 months
Thanks: 11573 time(s)
Belarus


Lossless: FLAC (tracks)
Register


Thanks:
(1) Olethros,
Go to the top of the page
  Insert nick Quick quote
+Quote Post
post Jun 23 2022, 05:35:57
Post #3

i listen to black metal
**************
Group: Металариец
Posts: 3,354
Releases: 144
From: Москва
On Forums: 15 years 6 months
Thanks: 2447 time(s)
Russian Federation


видео конечно у них чмошное- любому тиктокеру отдай руль и он сделает конфетку))))
Go to the top of the page
  Insert nick Quick quote
+Quote Post

Reply to this topicStart new topic
2 User(s) are reading this topic (2 Guests and 0 Anonymous Users)
0 Members:

 



- Lo-Fi Version Support form
Copyrights and abuse reports form
Time is now: 6th July 2022 - 18:12:54