Welcome Guest ( Log In | Register )

> Void Dancer - Prone Burial (2022), Deathcore/Melodic Death Metal
post Apr 24 2022, 10:06:07
Post #1

MDM-Thrash Metal
**************
Group: Металариец
Posts: 11,204
Releases: 1526
From: Одесса
On Forums: 14 years 10 months
Thanks: 36255 time(s)
Ukraine


(IMG:http://metalarea.org/images/audiocovers/2022_Apr/acov_tid363979_thumb.jpg)

*Artist: Void Dancer
*Album: Prone Burial
*Year: 2022
*Genre: Deathcore/Melodic Death Metal
*Country: United States (IMG:http://metalarea.org/forum/style_images/flags/United%20States.png)
*Format: mp3@CBR320kbps
*Size: 70MB

Tracklist:
1. The City: Deciduous
2. Utopian Sprawl
3. High Tide Theatre
4. Center Labyrinth
5. Blood on the Rung
6. To Sleep Astray
7. The Unread Palm
8. Living Wake
******************************
Total playing time: 30:22

Preview 1

(IMG:http://metalarea.org/images/youtube.png)

Extended info
Stephen Glade Bass
Brandon Dupraw Drums
See also: ReEvolution
Zane Smothermon Guitars
See also: ReEvolution
Michael Nelson Guitars
Clint Gee Vocals


Technical info
(IMG:http://metalarea.org/images/spectrogram/2022_Apr/5b11b94d73831cce9b005a4693afc2ad.png)
Input File: 02_void_dancer_uptopian_sprawl.mp3
Channels : 2
Sample Rate : 44100
Precision : 16-bit
Duration : 00:03:27.95 = 9170551 samples = 15596.2 CDDA sectors
File Size : 8.44M
Bit Rate : 325k
Sample Encoding: MPEG audio (layer I, II or III)
Comments :
Title=Uptopian Sprawl
Artist=Void Dancer
Album=Prone Burial
Tracknumber=2
Year=2022
Discnumber=1/1



Register


Go to the top of the page
  Insert nick Quick quote
+Quote Post
 
Start new topic
Replies (1 - 4)
post Apr 24 2022, 11:57:10
Post #2

Ледоруб
**************
Group: Металариец
Posts: 30,286
Releases: 0
From: Санкт-Петербург
On Forums: 12 years 9 months
Thanks: 10852 time(s)
Russian Federation


Надо проверять стиль.
Go to the top of the page
  Insert nick Quick quote
+Quote Post
post Apr 29 2022, 11:27:49
Post #3

Два Литра
**
Group: Завсегдатай
Posts: 131
Releases: 0
On Forums: 12 years 3 weeks
Thanks: 27 time(s)
Unknown


Progesive Death/metalcore?
Go to the top of the page
  Insert nick Quick quote
+Quote Post
post Jun 23 2022, 05:58:59
Post #4

i listen to black metal
**************
Group: Металариец
Posts: 3,354
Releases: 144
From: Москва
On Forums: 15 years 6 months
Thanks: 2447 time(s)
Russian Federation


в который раз у Andrew в папках нет обложек дисков

пусть посидит в бане недельку....
Go to the top of the page
  Insert nick Quick quote
+Quote Post
post Yesterday, 11:05:21
Post #5

Два Литра
**
Group: Завсегдатай
Posts: 131
Releases: 0
On Forums: 12 years 3 weeks
Thanks: 27 time(s)
Unknown


BANDCAMP CUSTOM DOMAIN
https://voiddancer.com/album/prone-burial
Go to the top of the page
  Insert nick Quick quote
+Quote Post

Reply to this topicStart new topic
2 User(s) are reading this topic (2 Guests and 0 Anonymous Users)
0 Members:

 



- Lo-Fi Version Support form
Copyrights and abuse reports form
Time is now: 6th July 2022 - 16:32:46