Welcome Guest ( Log In | Register )

> Bedsore & Mortal Incarnation - Bedsore/Mortal Incarnation [split] (2022), Progressive/Atmospheric Death Metal | Death/Doom Metal
post Apr 27 2022, 11:13:40
Post #1

Правь статус, ####!111
**************
Group: Металариец
Posts: 4,117
Releases: 2584
On Forums: 12 years 2 weeks
Thanks: 47037 time(s)
Russian Federation


(IMG:https://metalarea.org/images/audiocovers/2022_Apr/acov_tid364073_thumb.jpg)

*Artist: Bedsore & Mortal Incarnation
*Album: Bedsore/Mortal Incarnation [split]
*Year: 2022
*Genre: Progressive/Atmospheric Death Metal | Death/Doom Metal
*Country: Italy (IMG:https://metalarea.org/forum/style_images/flags/Italy.png) | Japan (IMG:https://metalarea.org/forum/style_images/flags/Japan.png)
*Format: mp3@CBR320kbps
*Size: 71MB

Tracklist:
Bedsore:
1.Shapes From Beyond The Veil Of Stars And Space 16:24
Mortal Incarnation:
2.In The Perpetual Torment Of Recurrence 14:22
******************************
Total playing time: 30:46

Preview 1

Technical info
(IMG:https://metalarea.org/images/spectrogram/2022_Apr/e50d294de2be8f910db6a233386dc230.png)
Input File: 02 - In the Perpetual Torment of Recurrence sample.mp3
Channels : 2
Sample Rate : 44100
Precision : 16-bit
Duration : 00:03:35.08 = 9484940 samples = 16130.9 CDDA sectors
File Size : 8.60M
Bit Rate : 320k
Sample Encoding: MPEG audio (layer I, II or III)
Comments :
Title=In the Perpetual Torment of Recurrence
Artist=Mortal Incarnation
Album=Split
Tracknumber=02
Year=2022
Genre=Death Metal



Register


Go to the top of the page
  Insert nick Quick quote
+Quote Post
 
Start new topic
Replies (1 - 3)
post Jul 20 2022, 16:01:56
Post #2

Правь статус, ####!111
**************
Group: Металариец
Posts: 4,632
Releases: 19
From: Holland
On Forums: 16 years 5 months
Thanks: 1658 time(s)
Netherlands


Mortal Incarnation раньше не слыхивал, но очень заинтересовали, очень насыщенный Disembowelment-металл, местами просто шикардоснейший.

Bedsore (ради которых скачал) пока не понял, перемудрили с обскурностью, раскурить это мне не дано.


Thanks:
(1) Occultas,
Go to the top of the page
  Insert nick Quick quote
+Quote Post
post Jul 23 2022, 15:35:05
Post #3

threat
**********
Group: Металариец
Posts: 1,157
Releases: 0
On Forums: 16 years 3 months
Thanks: 471 time(s)
Turkey


can you renew the link
Go to the top of the page
  Insert nick Quick quote
+Quote Post
post Jul 23 2022, 16:52:40
Post #4

Правь статус, ####!111
**************
Group: Металариец
Posts: 4,632
Releases: 19
From: Holland
On Forums: 16 years 5 months
Thanks: 1658 time(s)
Netherlands


Register


Go to the top of the page
  Insert nick Quick quote
+Quote Post

Reply to this topicStart new topic
1 User(s) are reading this topic (1 Guests and 0 Anonymous Users)
0 Members:

 



- Lo-Fi Version Support form
Copyrights and abuse reports form
Time is now: 2nd December 2022 - 23:23:47