Welcome Guest ( Log In | Register )

> И неформату есть предел.

Рэп/хип-хоп/шансон/поп удаляются. Для них есть свои порталы.

> The Gathering - Beautiful Distortion (2022), Atmospheric/Alternative Rock (D)
post Apr 29 2022, 08:12:50
Post #1

Четыре Литра
****
Group: Металариец
Posts: 368
Releases: 3
From: минск сити
On Forums: 12 years 10 months
Thanks: 319 time(s)
Belarus


(IMG:http://metalarea.org/images/audiocovers/2022_Apr/acov_tid364153_thumb.jpg)

*Artist: The Gathering
*Album: Beautiful Distortion
*Year: 2022
*Genre: Atmospheric/Alternative Rock
*Country: Netherlands (IMG:http://metalarea.org/forum/style_images/flags/Netherlands.png)
*Format: mp3@CBR320kbps
*Size: 160MB

Tracklist:
CD 1:
1. In Colour 05:49
2. When We Fall 05:23
3. Grounded 06:52
4. We Rise 06:47
5. Black is Magnified 06:19
6. Weightless 05:50
7. Pulse of Life 06:44
8. On Delay 04:30
CD 2:
1. Stronger 05:26
2. Disconnect 06:04
3. How to Measure a Planet? (Live Version) 10:28
******************************
Total playing time: 1:10:12



Extended info
The Gathering:
Frank Boeijen – keyboards, hammond, rhodes, wurlitzer & grand piano
Hugo Prinsen Geerligs - bass guitars, electric guitars, keyboards, grand piano & percussion
René Rutten - electric and acoustic guitars, keyboards & percussion
Hans Rutten - drums & percussion
Silje Wergeland - vocals


Technical info
(IMG:http://metalarea.org/images/spectrogram/2022_Apr/8adb5d04ac756cedda9940073eda2de2.png)
Input File: 02 - Disconnect.mp3
Channels : 2
Sample Rate : 44100
Precision : 16-bit
Duration : 00:06:03.73 = 16040317 samples = 27279.5 CDDA sectors
File Size : 14.6M
Bit Rate : 320k
Sample Encoding: MPEG audio (layer I, II or III)
Comments :
Title=Disconnect
Artist=The Gathering
Album=Beautiful Distortion
Tracknumber=2/3/3
Year=2022
Discnumber=1/1/1



Register


Go to the top of the page
  Insert nick Quick quote
+Quote Post
3 Pages V  < 1 2 3  
Start new topic
Replies (60 - 62)
post May 14 2022, 22:56:23
Post #61

Ледоруб
**************
Group: Металариец
Posts: 30,154
Releases: 0
From: Санкт-Петербург
On Forums: 12 years 8 months
Thanks: 10804 time(s)
Russian Federation


ЦИТАТА(дивин @ 29th April 2022 - 10:12:50) *
Pulse of Life

Хорошо. Особенно вторая половина.

Сам альбом - приятная скукота, не более.
Go to the top of the page
  Insert nick Quick quote
+Quote Post
post May 16 2022, 07:14:07
Post #62

Холодная черная птица
**
Group: Завсегдатай
Posts: 164
Releases: 0
From: Красноярск
On Forums: 13 years 5 months
Thanks: 225 time(s)
Russian Federation


Затягивает. Есть ощущение, что альбом ближе к Home, чем к Disclosure... Не знаю почему так кажется...
Мой фаворит - On Delay, послушал на репите раз 20 уже. Великолепная атмосферная музыка, до мурашков... Правда, партия вокала как для Аннеке написана, может поэтому и зацепило?...


Thanks:
Go to the top of the page
  Insert nick Quick quote
+Quote Post
post May 18 2022, 08:42:07
Post #63

Маньяк
**********
Group: Металариец
Posts: 1,129
Releases: 57
From: Санкт-Петербург
On Forums: 16 years 3 days
Thanks: 3184 time(s)
Russian Federation


Первая половина альбома скучновата, как-то все слишком ровно и блекло, после пары-тройки композиций появляется мысль: "сколько там до конца еще осталось?", но дальше становится интереснее, Weightless и Pulse Of Life так прямо вообще хороши.
Go to the top of the page
  Insert nick Quick quote
+Quote Post

3 Pages V  < 1 2 3
Reply to this topicStart new topic
2 User(s) are reading this topic (2 Guests and 0 Anonymous Users)
0 Members:

 



- Lo-Fi Version Support form
Copyrights and abuse reports form
Time is now: 22nd May 2022 - 16:03:41