Welcome Guest ( Log In | Register )

> Wåttamezz - Kinky Bastard (1997), Heavy/Thrash Metal
post Apr 29 2022, 17:04:59
Post #1

Подвал
**************
Group: Металариец
Posts: 17,523
Releases: 10014
From: Far East (Khabarovsk)
On Forums: 13 years 6 months
Thanks: 116420 time(s)
Russian Federation


(IMG:http://metalarea.org/images/audiocovers/2022_Apr/acov_tid364169_thumb.jpg)

*Artist: Wåttamezz
*Album: Kinky Bastard
*Year: 1997
*Genre: Heavy/Thrash Metal
*Country: Norway (IMG:http://metalarea.org/forum/style_images/flags/Norway.png)
*Format: mp3@CBR192kbps
*Size: 57MB

Tracklist:
1. Power Of Unknown 05:53
2. Surveillance 03:01
3. Argon (The Sun Is The Builder) 03:04
4. Hear Me Cry 04:28
5. Agony 04:57
6. Vicious Fantasy 05:45
7. The Lament Configuration 05:11
8. Dragqueen Barbie 03:22
9. Perception Of Time 04:44
10. Untitled 01:40
******************************
Total playing time: 42:05

Technical info
(IMG:http://metalarea.org/images/spectrogram/2022_Apr/469633df39ebe5f5e5403586d75e5978.png)
Input File: 01-Power of Unknown.mp3
Channels : 2
Sample Rate : 44100
Precision : 16-bit
Duration : 00:05:53.09 = 15571093 samples = 26481.5 CDDA sectors
File Size : 8.47M
Bit Rate : 192k
Sample Encoding: MPEG audio (layer I, II or III)
Comments :
Title=Power of Unknown
Artist=Wåttamezz (Nor)
Album=Kinky Bastard
Tracknumber=01
Year=1997
Genre=Metal



Register


Go to the top of the page
  Insert nick Quick quote
+Quote Post
 
Start new topic
Replies (1 - 1)
post Apr 30 2022, 20:07:17
Post #2

Group: Подсевший
Posts: 41
Releases: 0
From: Russia
On Forums: 13 years 11 months
Thanks: 24 time(s)
Russian Federation


Полный альбом:


Thanks:
(1) boby9052,
Go to the top of the page
  Insert nick Quick quote
+Quote Post

Reply to this topicStart new topic
2 User(s) are reading this topic (2 Guests and 0 Anonymous Users)
0 Members:

 



- Lo-Fi Version Support form
Copyrights and abuse reports form
Time is now: 11th August 2022 - 06:30:46