Welcome Guest ( Log In | Register )

> Bestialord - Bless Them With Pain (2022), Doom/Death Metal
post Apr 30 2022, 04:57:51
Post #1

Правь статус, ####!111
**************
Group: Металариец
Posts: 3,202
Releases: 1714
On Forums: 11 years 8 months
Thanks: 33393 time(s)
Russian Federation


(IMG:https://metalarea.org/images/audiocovers/2022_Apr/acov_tid364195_thumb.jpg)

*Artist: Bestialord
*Album: Bless Them With Pain
*Year: 2022
*Genre: Doom/Death Metal
*Country: United States (IMG:https://metalarea.org/forum/style_images/flags/United%20States.png)
*Format: mp3@CBR320kbps
*Size: 86MB

Tracklist:
1.Bless Them With Pain 05:32
2.Face Your Sin 02:48
3.Upon The Altar 03:47
4.So It Shall Be 05:31
5.Are We Not Gods 04:40
6.Starless Seas 04:21
7.Master Life 04:16
8.Herald Of Dawn 07:09
******************************
Total playing time: 38:04



Extended info





Technical info
(IMG:https://metalarea.org/images/spectrogram/2022_Apr/04752d75b920736796e1329e8c89eebb.png)
Input File: 02 - Face Your Sin.mp3
Channels : 2
Sample Rate : 44100
Precision : 16-bit
Duration : 00:02:48.16 = 7415944 samples = 12612.1 CDDA sectors
File Size : 6.85M
Bit Rate : 326k
Sample Encoding: MPEG audio (layer I, II or III)
Comments :
Title=Face Your Sin
Artist=Bestialord
Album=Bless Them with Pain
Tracknumber=02
Year=2022
Genre=Death Metal



Register


Go to the top of the page
  Insert nick Quick quote
+Quote Post
 
Start new topic
Replies (1 - 5)
post Apr 30 2022, 09:08:28
Post #2

hearer & reader
**************
Group: Металариец
Posts: 10,318
Releases: 211
From: Moscow
On Forums: 14 years 11 months
Thanks: 12585 time(s)
Russian Federation


Register


Thanks:
Go to the top of the page
  Insert nick Quick quote
+Quote Post
post Apr 30 2022, 12:30:38
Post #3

Пять Литров
*****
Group: Металариец
Posts: 486
Releases: 0
On Forums: 4 years 6 months
Thanks: 167 time(s)
Belarus


Привет из восьмидесятых, с легким зловонием Black Metal.
Go to the top of the page
  Insert nick Quick quote
+Quote Post
post May 1 2022, 15:46:12
Post #4
BAN
Banned till
Aug 17 2022, 15:38:53



ЦИТАТА(GRAF @ Apr 30 2022, 12:30:38) *
Привет из восьмидесятых, с легким зловонием Black Metal.

Что вы курите? (IMG:style_emoticons/default/bye.gif)
Go to the top of the page
  Insert nick Quick quote
+Quote Post
post May 1 2022, 16:58:10
Post #5

Семь Литров
*******
Group: Металариец
Posts: 749
Releases: 0
From: Лыткарино
On Forums: 3 years 3 months
Thanks: 200 time(s)
Russian Federation


Ничего он не курит, просто у человека феноменально узкое восприятие музыки, даже фюнерал или дум-дэт должен быть каким-то определённым и никаким иначе. И не бай бог там будет хоть капля от других направлений.


Thanks:
Go to the top of the page
  Insert nick Quick quote
+Quote Post
post May 14 2022, 08:41:20
Post #6

...Only Death Is Real...
**************
Group: Металариец
Posts: 3,097
Releases: 19
On Forums: 12 years 2 weeks
Thanks: 2043 time(s)
Antarctica


Тут скорее Thrash\Doom Metal (на не высоких скоростях), что заметно по не особо тяжёлому звуку и вокалу.
Go to the top of the page
  Insert nick Quick quote
+Quote Post

Reply to this topicStart new topic
1 User(s) are reading this topic (1 Guests and 0 Anonymous Users)
0 Members:

 



- Lo-Fi Version Support form
Copyrights and abuse reports form
Time is now: 11th August 2022 - 19:48:38