Welcome Guest ( Log In | Register )

> Sarcastic Existence - Arts Of Execution (1995), Death/Thrash Metal
post Apr 30 2022, 14:01:43
Post #1

Подвал
**************
Group: Металариец
Posts: 17,523
Releases: 10014
From: Far East (Khabarovsk)
On Forums: 13 years 6 months
Thanks: 116421 time(s)
Russian Federation


(IMG:http://metalarea.org/images/audiocovers/2022_Apr/acov_tid364208_thumb.jpg)

*Artist: Sarcastic Existence
*Album: Arts Of Execution
*Year: 1995
*Genre: Death/Thrash Metal
*Country: Germany (IMG:http://metalarea.org/forum/style_images/flags/Germany.png)
*Format: mp3@CBR192kbps
*Size: 61MB

Tracklist:
1. Arts Of Execution 03:50
2. Kill Your Neighbour 06:56
3. Fear Of Indication 04:52
4. Suicid Mentality 04:28
5. Denial Of Christianity 04:37
6. Cosmic Drama 06:30
7. Sacrificed 03:28
8. Strangulation 05:10
9. Infected State 04:31
******************************
Total playing time: 44:22

Extended info
Produced by Sarcastic Existence in 1994.
Mixed & recorded at A & A Musik Studio, Potsdam.


Technical info
(IMG:http://metalarea.org/images/spectrogram/2022_Apr/1a5f62fb7d40c91bd41c922ba0fff33d.png)
Input File: 01-Arts of Execution.mp3
Channels : 2
Sample Rate : 44100
Precision : 16-bit
Duration : 00:03:49.26 = 10110454 samples = 17194.6 CDDA sectors
File Size : 5.50M
Bit Rate : 192k
Sample Encoding: MPEG audio (layer I, II or III)
Comments :
Title=Arts of Execution
Artist=Sarcastic Existence (Ger)
Album=Arts of Execution
Tracknumber=01
Year=1995
Genre=Death Metal



Register


Go to the top of the page
  Insert nick Quick quote
+Quote Post
 
Start new topic
Replies (1 - 1)
post Aug 6 2022, 09:58:07
Post #2

Шесть Литров
******
Group: Металариец
Posts: 541
Releases: 0
From: Tetovo
On Forums: 16 years 3 months
Thanks: 24 time(s)
Macedonia


Thanx a lot for this relese !!!!!
Go to the top of the page
  Insert nick Quick quote
+Quote Post

Reply to this topicStart new topic
2 User(s) are reading this topic (2 Guests and 0 Anonymous Users)
0 Members:

 



- Lo-Fi Version Support form
Copyrights and abuse reports form
Time is now: 11th August 2022 - 08:53:30