Welcome Guest ( Log In | Register )

> Häxenzijrkell - Urgrund (2022), Atmospheric Black Metal (D4)
post Apr 30 2022, 15:58:05
Post #1

Правь статус, ####!111
**************
Group: Металариец
Posts: 5,724
Releases: 5240
From: Одесса
On Forums: 14 years 6 months
Thanks: 61408 time(s)
Ukraine


(IMG:http://metalarea.org/images/audiocovers/2022_Apr/acov_tid364212_thumb.jpg)

*Artist: Häxenzijrkell
*Album: Urgrund
*Year: 2022
*Genre: Atmospheric Black Metal
*Country: Germany (IMG:http://metalarea.org/forum/style_images/flags/Germany.png)
*Format: mp3@CBR320kbps
*Size: 84MB

Tracklist:
1. Part 1: Die Entschleierung 18:20
2. Part 2: Von Zeit und Form 08:12
3. Part 3: Der Pfad der Finsternis 08:42
******************************
Total playing time: 35:14


metal-archives

Extended info
Line - up:

P. - Drums (Iapetos)
MK - Vocals, Guitars, Synths (Iapetos, Lichtzehrer, Rraaumm)


Technical info
(IMG:http://metalarea.org/images/spectrogram/2022_Apr/0723d23753d0b6f7b82a844b3fdb2e71.png)
Input File: 03. Part 3 Der Pfad der Finsternis.mp3
Channels : 2
Sample Rate : 44100
Precision : 16-bit
Duration : 00:08:42.09 = 23024125 samples = 39156.7 CDDA sectors
File Size : 20.9M
Bit Rate : 320k
Sample Encoding: MPEG audio (layer I, II or III)
Comments :
Title=Part 3: Der Pfad der Finsternis
Artist=Haxenzijrkell
Album=Urgrund
Tracknumber=3
Year=2022
Genre=138



Register


Go to the top of the page
  Insert nick Quick quote
+Quote Post
 
Start new topic
Replies (1 - 3)
post May 1 2022, 20:12:17
Post #2

Пять Литров
*****
Group: Металариец
Posts: 409
Releases: 1
On Forums: 15 years 7 months
Thanks: 39 time(s)
Russian Federation


атмосфера сырости, болота, пещеры.. чуть хоррора. да ниче вроде
Go to the top of the page
  Insert nick Quick quote
+Quote Post
post Nov 24 2022, 08:45:08
Post #3

Group: Дух
Posts: 6
Releases: 0
On Forums: 4 years 8 months
Thanks: 0 time(s)
Czech Republic


Reupload please? Links are dead.
Go to the top of the page
  Insert nick Quick quote
+Quote Post
post Nov 24 2022, 10:27:59
Post #4

NOUMENA
**************
Group: Металариец
Posts: 7,625
Releases: 12
On Forums: 13 years 3 weeks
Thanks: 3654 time(s)
Unknown


Register


Thanks:
Go to the top of the page
  Insert nick Quick quote
+Quote Post

Reply to this topicStart new topic
2 User(s) are reading this topic (2 Guests and 0 Anonymous Users)
0 Members:

 



- Lo-Fi Version Support form
Copyrights and abuse reports form
Time is now: 2nd December 2022 - 09:37:48