Welcome Guest ( Log In | Register )

> Utter Silence - The Terror [ep] (2022), Melodic Death/Doom Metal
post May 1 2022, 03:18:11
Post #1

Правь статус, ####!111
**************
Group: Металариец
Posts: 3,495
Releases: 1989
On Forums: 11 years 10 months
Thanks: 38267 time(s)
Russian Federation


(IMG:https://metalarea.org/images/audiocovers/2022_May/acov_tid364238_thumb.jpg)

*Artist: Utter Silence
*Album: The Terror [ep]
*Year: 2022
*Genre: Melodic Death/Doom Metal
*Country: Germany (IMG:https://metalarea.org/forum/style_images/flags/Germany.png)
*Format: mp3@CBR320kbps
*Size: 30MB

Tracklist:
1.Heading North (Intro) 01:05
2.The Terror 06:27
3.Across the Astral Sea 05:54
******************************
Total playing time: 13:26



Technical info
(IMG:https://metalarea.org/images/spectrogram/2022_May/1b3509d767e44b286520865d5a4ef5ad.png)
Input File: 03 - Across the Astral Sea.mp3
Channels : 2
Sample Rate : 44100
Precision : 16-bit
Duration : 00:05:54.87 = 15649767 samples = 26615.2 CDDA sectors
File Size : 14.4M
Bit Rate : 324k
Sample Encoding: MPEG audio (layer I, II or III)
Comments :
Title=Across the Astral Sea
Artist=Utter Silence
Album=The Terror
Tracknumber=03
Year=2022
Genre=Melodic Death/Doom Metal



Register


Go to the top of the page
  Insert nick Quick quote
+Quote Post
 
Start new topic
Replies (1 - 3)
post Sep 22 2022, 20:18:52
Post #2

Маньяк
**********
Group: Металариец
Posts: 1,237
Releases: 10
On Forums: 13 years 8 months
Thanks: 172 time(s)
Germany


Please, re-upload.
Go to the top of the page
  Insert nick Quick quote
+Quote Post
post Sep 23 2022, 07:47:23
Post #3

Forever Underground
**************
Group: Металариец
Posts: 10,255
Releases: 0
On Forums: 7 years 5 months
Thanks: 15210 time(s)
Unknown


QUOTE(deathic @ Sep 22 2022, 21:18:52) *
re-upload

320kbps (personal purchase from Bandcamp)
Register


Thanks:
Go to the top of the page
  Insert nick Quick quote
+Quote Post
post Sep 23 2022, 16:11:02
Post #4

Маньяк
**********
Group: Металариец
Posts: 1,237
Releases: 10
On Forums: 13 years 8 months
Thanks: 172 time(s)
Germany


QUOTE(thenecromancer @ Sep 23 2022, 08:47:23) *
320kbps (personal purchase from Bandcamp)


Thank you so much.


Thanks:
Go to the top of the page
  Insert nick Quick quote
+Quote Post

Reply to this topicStart new topic
2 User(s) are reading this topic (2 Guests and 0 Anonymous Users)
0 Members:

 



- Lo-Fi Version Support form
Copyrights and abuse reports form
Time is now: 25th September 2022 - 22:27:07