Welcome Guest ( Log In | Register )

> Grizzly Fetish - 腐蝕 : 2016-2018 [compilation] (2018), Black Metal/Grindcore/Noise
post May 1 2022, 07:01:00
Post #1

Литр
*
Group: Подсевший
Posts: 97
Releases: 87
From: Москва
On Forums: 12 years 7 months
Thanks: 1829 time(s)
Unknown


(IMG:https://metalarea.org/images/audiocovers/2022_May/acov_tid364252_thumb.jpg)

*Artist: Grizzly Fetish
*Album: 腐蝕 : 2016-2018 [compilation]
*Year: 2018
*Genre: Black Metal/Grindcore/Noise
*Country: Japan (IMG:https://metalarea.org/forum/style_images/flags/Japan.png)
*Format: mp3@VBR293kbps
*Size: 76MB

Tracklist:
01. 夕凪 02:49
02. 惨禍 01:56
03. 怨嗟の念 03:14
04. 大輪の花 01:51
05. 白い粘液 01:17
06. 水鏡 03:01
07. 蝕 02:34
08. 錆びついた楔 03:55
09. 邯鄲の夢 03:00
10. Shelter 02:41
11. Untitled 02:08
12. 邯鄲の夢 (Unreleased Version) 03:09
13. 錆びついた楔 (Unreleased Version) 03:56
******************************
Total playing time: 35:31

Technical info
(IMG:https://metalarea.org/images/spectrogram/2022_May/82a0d43f64f45dde4376d021ff6c2111.png)
Input File: 02 惨禍.mp3
Channels : 2
Sample Rate : 44100
Precision : 16-bit
Duration : 00:01:56.43 = 5134431 samples = 8732.03 CDDA sectors
File Size : 4.74M
Bit Rate : 326k
Sample Encoding: MPEG audio (layer I, II or III)
Comments :
Title=惨禍
Artist=Grizzly Fetish
Album=腐食 : 2016-2018
Tracknumber=02/13
Year=2018
Discnumber=1/1



Register


Go to the top of the page
  Insert nick Quick quote
+Quote Post
 
Start new topic
Replies (1 - 2)
post May 1 2022, 09:57:19
Post #2

:3
**************
Group: Металариец
Posts: 4,890
Releases: 103
From: Novosibirsk
On Forums: 14 years 10 months
Thanks: 3981 time(s)
Russian Federation


(IMG:https://i.imgur.com/vRGbQMZ.png)
Go to the top of the page
  Insert nick Quick quote
+Quote Post
post May 13 2022, 17:53:34
Post #3

...Only Death Is Real...
**************
Group: Металариец
Posts: 3,099
Releases: 19
On Forums: 12 years 3 weeks
Thanks: 2044 time(s)
Antarctica


Go to the top of the page
  Insert nick Quick quote
+Quote Post

Reply to this topicStart new topic
1 User(s) are reading this topic (1 Guests and 0 Anonymous Users)
0 Members:

 



- Lo-Fi Version Support form
Copyrights and abuse reports form
Time is now: 15th August 2022 - 22:24:13