Welcome Guest ( Log In | Register )

> Melancholic Seasons - The Crypt Of Time (2022), Melodic Death Metal
post May 3 2022, 12:41:22
Post #1

MDM-Thrash Metal
**************
Group: Металариец
Posts: 11,392
Releases: 1585
From: Одесса
On Forums: 15 years 1 month
Thanks: 37452 time(s)
Ukraine


(IMG:http://metalarea.org/images/audiocovers/2022_May/acov_tid364329.jpg)

*Artist: Melancholic Seasons
*Album: The Crypt Of Time
*Year: 2022
*Genre: Melodic Death Metal
*Country: Germany (IMG:http://metalarea.org/forum/style_images/flags/Germany.png)
*Format: mp3@CBR320kbps
*Size: 141MB

Tracklist:
1. The Imperfection Of...(Intro)
2. The Creation
3. The Crypt Of Time
4. Die Seuche
5. A New Identity (Graves In Mind Pt. 2)
6. Narbenkleid
7. Unreal
8. Painful Truth
9. Into Burning Dreams...(Intro)
10. Burning Dreams
11. Balance Of Terror
12. I Am December (Autumnsphere Pt. 2)
13. Dear Mr. Silence
14. Dead-End Street (v.2022)
15. Alles schon geschehen (v.2022)
******************************
Total playing time: 1:01:24


(IMG:http://metalarea.org/images/youtube.png)

Extended info
Andi Henke Guitars (1995-present)
Rene Glaser Guitars (2007-present)
Flo Meister Bass (2020-present)
Kevin Kiesecker Vocals (2020-present)


Technical info
(IMG:http://metalarea.org/images/spectrogram/2022_May/3d1dd78c8fffcdf43b6dec95dafb6111.png)
Input File: 02 - The Creation.mp3
Channels : 2
Sample Rate : 44100
Precision : 16-bit
Duration : 00:02:54.88 = 7712032 samples = 13115.7 CDDA sectors
File Size : 7.00M
Bit Rate : 320k
Sample Encoding: MPEG audio (layer I, II or III)
Comments :
Title=The Creation
Artist=Melancholic Seasons
Album=The Crypt Of Time
Tracknumber=2
Year=2022



Register


Go to the top of the page
  Insert nick Quick quote
+Quote Post
 
Start new topic
Replies (1 - 5)
post May 3 2022, 19:41:10
Post #2

Мегаманьяк
***********
Group: Металариец
Posts: 1,619
Releases: 0
From: Russian Federation - St.Petersburg
On Forums: 13 years 7 months
Thanks: 460 time(s)
Russian Federation


Задорненько так шуруют, небольшая трэшовая примесь здесь музыке явно идёт на пользу! (IMG:style_emoticons/default/banana.gif)
Go to the top of the page
  Insert nick Quick quote
+Quote Post
post May 3 2022, 21:33:58
Post #3

Четыре Литра
****
Group: Металариец
Posts: 380
Releases: 1
On Forums: 15 years 5 months
Thanks: 37 time(s)
Russian Federation


божественный гроул. жаль нет клавиш никаких, но все равно ниче
Go to the top of the page
  Insert nick Quick quote
+Quote Post
post May 9 2022, 14:54:27
Post #4

Old School Metal
**************
Group: Металариец
Posts: 4,590
Releases: 0
From: г. Минск
On Forums: 13 years 6 months
Thanks: 12290 time(s)
Belarus


Lossless: FLAC (tracks)
Register


Thanks:
Go to the top of the page
  Insert nick Quick quote
+Quote Post
post May 10 2022, 15:08:34
Post #5

к приему виски готов
*********
Group: Металариец
Posts: 914
Releases: 3
From: Украина
On Forums: 13 years 7 months
Thanks: 542 time(s)
Ukraine


хороший альбом, и вокал и гитары радуют, и разнообразие присутствует.


Thanks:
Go to the top of the page
  Insert nick Quick quote
+Quote Post
post Aug 17 2022, 07:56:26
Post #6
BAN
Banned till
Oct 3 2022, 17:14:16



Глоток свежего воздуха на фоне льющегося дерьма в стиле.
Go to the top of the page
  Insert nick Quick quote
+Quote Post

Reply to this topicStart new topic
2 User(s) are reading this topic (2 Guests and 0 Anonymous Users)
0 Members:

 



- Lo-Fi Version Support form
Copyrights and abuse reports form
Time is now: 3rd October 2022 - 10:17:51