Welcome Guest ( Log In | Register )

> Thy Sorcery - Trippin' Blood (2022), Psychedelic Doom/Stoner Metal
post May 3 2022, 14:48:46
Post #1

Serial Uploader
Group Icon
Group: V.I.P
Posts: 38,748
Releases: 36887
From: Lithuania
On Forums: 14 years 2 months
Thanks: 458819 time(s)
Lithuania


(IMG:https://metalarea.org/images/audiocovers/2022_May/acov_tid364331_thumb.jpg)

*Artist: Thy Sorcery
*Album: Trippin' Blood
*Year: 2022
*Genre: Psychedelic Doom/Stoner Metal
*Country: Russian Federation (IMG:https://metalarea.org/forum/style_images/flags/Russian%20Federation.png)
*Format: mp3@CBR320kbps
*Size: 150MB

Tracklist:
01. Mercurial Pyramid 05:56
02. Cast Down This World 11:39
03. Blood Freak 11:15
04. Dr. Browning 11:21
05. Cobra Caddabra 10:20
06. Dracula's Hangover 14:33
******************************
Total playing time: 1:05:04

Preview 1

(IMG:https://metalarea.org/images/youtube.png)

Technical info
(IMG:https://metalarea.org/images/spectrogram/2022_May/e71d0b5c8ff080b2a24c35555d41584f.png)
Input File: 02 - Cast Down This World.mp3
Channels : 2
Sample Rate : 44100
Precision : 16-bit
Duration : 00:11:39.00 = 30825900 samples = 52425 CDDA sectors
File Size : 28.1M
Bit Rate : 322k
Sample Encoding: MPEG audio (layer I, II or III)
Comments :
Title=Cast Down This World
Artist=Thy Sorcery
Album=Trippin' Blood
Tracknumber=2
Year=2022-05-01
Genre=Metal
Discnumber=1



Register


Go to the top of the page
  Insert nick Quick quote
+Quote Post
 
Start new topic
Replies (1 - 7)
post May 3 2022, 16:09:44
Post #2

Правь статус, ####!111
**************
Group: Металариец
Posts: 51,360
Releases: 943
On Forums: 13 years 2 months
Thanks: 48094 time(s)
Russian Federation


Самый долгожданнейший релиз года наконец то здесь! (IMG:style_emoticons/default/pray.gif) Огромнейшее спасибо. (IMG:style_emoticons/default/9.gif) Дебютная ипишка была мега шикарной, этакий Salem`s Pot по питерски. Всем любителям направления строго обязательно к ознакомлению.
Go to the top of the page
  Insert nick Quick quote
+Quote Post
post May 3 2022, 17:22:52
Post #3

Правь статус, ####!111
**************
Group: Металариец
Posts: 51,360
Releases: 943
On Forums: 13 years 2 months
Thanks: 48094 time(s)
Russian Federation


После первого прогона могу сказать следующее - ни на секунду не разочаровали, а, наоборот, ещё более превзошли и без того высокие ожидания. Mercurial Pyramid, Cast Down This World, Cobra Caddabra идеально дополняют уже знакомые с ипишки монолитно психоделично-тяжёлые Blood Freak и Dr. Browning. Последний трэк Dracula's Hangover удивил, ибо ожидал металла, а получил магически-атмосферную инструментальную зарисовку, достойно завершающую этот и без того эпический альбом.

Несмотря на середину года, скажу, что этот релиз вряд ли кто-то сможет одолеть в категории "Лучший (психоделик/cтоунер) дум метал 2022".
Go to the top of the page
  Insert nick Quick quote
+Quote Post
post May 3 2022, 17:38:45
Post #4

:3
**************
Group: Металариец
Posts: 4,890
Releases: 103
From: Novosibirsk
On Forums: 14 years 10 months
Thanks: 3981 time(s)
Russian Federation


Какой-то генерик очередной с закосом под EW, на втором треке надоело.
Из подобного лучшее вот это: The Moon Mistress - Demo [demo] (2010)


Thanks:
(1) karut,
Go to the top of the page
  Insert nick Quick quote
+Quote Post
post May 3 2022, 18:09:12
Post #5

Правь статус, ####!111
**************
Group: Металариец
Posts: 51,360
Releases: 943
On Forums: 13 years 2 months
Thanks: 48094 time(s)
Russian Federation


FLAC также приветствуется (IMG:style_emoticons/default/9.gif)
Go to the top of the page
  Insert nick Quick quote
+Quote Post
post May 4 2022, 19:00:46
Post #6

https://rateyourmusic.com/~Ghostb
**************
Group: Металариец
Posts: 2,658
Releases: 0
From: Харьков
On Forums: 12 years 10 months
Thanks: 1303 time(s)
Ukraine


ЦИТАТА(vosmidesijatye @ May 3 2022, 18:09:44) *
Самый долгожданнейший релиз года

Прям самый?) Надо бы послушать.
Go to the top of the page
  Insert nick Quick quote
+Quote Post
post May 10 2022, 05:55:54
Post #7

hearer & reader
**************
Group: Металариец
Posts: 10,321
Releases: 211
From: Moscow
On Forums: 14 years 11 months
Thanks: 12588 time(s)
Russian Federation


Register


Thanks:
Go to the top of the page
  Insert nick Quick quote
+Quote Post
post May 13 2022, 10:31:10
Post #8

Правь статус, ####!111
**************
Group: Металариец
Posts: 51,360
Releases: 943
On Forums: 13 years 2 months
Thanks: 48094 time(s)
Russian Federation


Во флаке ещё сытнее слушаетца (IMG:style_emoticons/default/20.gif)
Go to the top of the page
  Insert nick Quick quote
+Quote Post

Reply to this topicStart new topic
1 User(s) are reading this topic (1 Guests and 0 Anonymous Users)
0 Members:

 



- Lo-Fi Version Support form
Copyrights and abuse reports form
Time is now: 17th August 2022 - 08:44:04