Welcome Guest ( Log In | Register )

> Ufomammut - Fenice (2022), Stoner Doom/Post-Metal (D)
post May 6 2022, 12:46:52
Post #1

####!111
**************
Group: Металариец
Posts: 4,685
Releases: 141
From: The Mountain Of DOOM
On Forums: 15 years 4 months
Thanks: 6775 time(s)
Russian Federation


(IMG:http://metalarea.org/images/audiocovers/2022_May/acov_tid364461_thumb.jpg)

*Artist: Ufomammut
*Album: Fenice
*Year: 2022
*Genre: Stoner Doom/Post-Metal
*Country: Italy (IMG:http://metalarea.org/forum/style_images/flags/Italy.png)
*Format: mp3@CBR320kbps
*Size: 91MB

Tracklist:
1. Duat 10:33
2. Kepherer 02:59
3. Psychostasia 07:13
4. Metamorphoenix 07:41
5. Pyramind 07:04
6. Empyros 02:47
******************************
Total playing time: 38:17



Extended info
Scene web-rip (Deezer)


Technical info
(IMG:http://metalarea.org/images/spectrogram/2022_May/c826d943d0fccf0c989390148ed3ba11.png)
Input File: 06-empyros.mp3
Channels : 2
Sample Rate : 44100
Precision : 16-bit
Duration : 00:02:47.80 = 7399804 samples = 12584.7 CDDA sectors
File Size : 7.15M
Bit Rate : 341k
Sample Encoding: MPEG audio (layer I, II or III)
Comments :
Title=Empyros
Artist=Ufomammut
Album=Fenice
Tracknumber=6/6
Year=2022
Genre=Post-Metal



Register


Go to the top of the page
  Insert nick Quick quote
+Quote Post
 
Start new topic
Replies (1 - 4)
post May 6 2022, 14:36:21
Post #2

Восемь Литров
********
Group: Металариец
Posts: 827
Releases: 15
From: Brasil - Sao Paulo
On Forums: 2 years 9 months
Thanks: 727 time(s)
Brazil


This.
Go to the top of the page
  Insert nick Quick quote
+Quote Post
post May 7 2022, 02:04:00
Post #3

Шесть Литров
******
Group: Металариец
Posts: 647
Releases: 0
From: Isla de Margarita, Venezuela
On Forums: 4 years 4 weeks
Thanks: 153 time(s)
Venezuela


Thanks!!! (IMG:style_emoticons/default/pleased.gif)


Thanks:
Go to the top of the page
  Insert nick Quick quote
+Quote Post
post May 10 2022, 19:13:36
Post #4

https://rateyourmusic.com/~Ghostb
**************
Group: Металариец
Posts: 2,708
Releases: 0
From: Харьков
On Forums: 13 years 4 months
Thanks: 1342 time(s)
Ukraine


Послушаю, спасибо.
Go to the top of the page
  Insert nick Quick quote
+Quote Post
post Nov 22 2022, 15:39:10
Post #5

Void
******
Group: Металариец
Posts: 673
Releases: 8
On Forums: 15 years 8 months
Thanks: 778 time(s)
Antarctica


крутой альбом, рад, что они наконец-то вернулись к своему уникальному стилю. Последние два были какой-то мутной херней.
Go to the top of the page
  Insert nick Quick quote
+Quote Post

Reply to this topicStart new topic
1 User(s) are reading this topic (1 Guests and 0 Anonymous Users)
0 Members:

 



- Lo-Fi Version Support form
Copyrights and abuse reports form
Time is now: 9th February 2023 - 14:23:06