Welcome Guest ( Log In | Register )

Объявления

* gmail.com упорно продолжает считать почту с нас "unsolicited" и отбивает в том числе и письма активации, поэтому просьба использовать альтернативные почтовые ящики.
------------
* gmail.com continues reject all mail from us as "unsolicited" (activation mails too) therefore please use alternate mail servers.
> Worm Hero - Project Asmodeus [ep] (2022), Avant-garde Death Metal/Grindcore
post May 7 2022, 05:33:53
Post #1

Правь статус, ####!111
**************
Group: Металариец
Posts: 9,283
Releases: 7514
On Forums: 13 years 8 months
Thanks: 132847 time(s)
Italy


(IMG:https://metalarea.org/images/audiocovers/2022_May/acov_tid364489_thumb.jpg)

*Artist: Worm Hero
*Album: Project Asmodeus [ep]
*Year: 2022
*Genre: Avant-garde Death Metal/Grindcore
*Country: United Kingdom (IMG:https://metalarea.org/forum/style_images/flags/United%20Kingdom.png)
*Format: mp3@CBR320kbps
*Size: 49MB

Tracklist:
1.UNIT-01 Anima 01:02
2.UNIT-02 Dichotomy (feat. Ben of Goodbye Heretic) 01:33
3.UNIT-03 Trinity 01:18
4.UNIT-04 The Fool 02:15
5.UNIT-05 Evangelist 02:07
6.UNIT-06 Freyja 00:46
7.UNIT-07 Xerxes 04:44
8.Project Asmodeus 01:00
9.Tetragrammaton 01:47
10.The Pathetic Wyrm 02:18
11.Shellshocked Saint 03:15
******************************
Total playing time: 22:05



Technical info
(IMG:https://metalarea.org/images/spectrogram/2022_May/797641bf883cdeb06a2e30d1c3c60aa7.png)
Input File: 02 - UNIT-02 Dichotomy.mp3
Channels : 2
Sample Rate : 44100
Precision : 16-bit
Duration : 00:01:33.53 = 4124497 samples = 7014.45 CDDA sectors
File Size : 3.78M
Bit Rate : 323k
Sample Encoding: MPEG audio (layer I, II or III)
Comments :
Title=UNIT-02 Dichotomy
Artist=Worm Hero
Album=Project Asmodeus
Tracknumber=02
Year=2022
Genre=Avant-Garde Death Metal(Grindcore



Register


Go to the top of the page
  Insert nick Quick quote
+Quote Post
 
Start new topic
Replies (1 - 1)
post Oct 9 2023, 16:38:07
Post #2

Правь статус, ####!111
**************
Group: Металариец
Posts: 3,370
Releases: 0
On Forums: 15 years 5 months
Thanks: 1718 time(s)
South Korea


Currently downloadable free (FLAC, 320 kbps, etc.) on 'name your price' basis' by entering your email address and getting a link from the label's BandCamp page (but NOT through the band's page):


Thanks:
Go to the top of the page
  Insert nick Quick quote
+Quote Post

Reply to this topicStart new topic
1 User(s) are reading this topic (1 Guests and 0 Anonymous Users)
0 Members:

 



- Lo-Fi Version Support form
Copyrights and abuse reports form
Time is now: 19th July 2024 - 12:25:05