Welcome Guest ( Log In | Register )

> И неформату есть предел.

Рэп/хип-хоп/шансон/поп удаляются. Для них есть свои порталы.

 
Reply to this topicStart new topic
> Noekk - The White Lady (2021), Progressive Rock (D)
post May 11 2022, 17:55:14
Post #1

Правь статус, ####!111
**************
Group: Металариец
Posts: 5,202
Releases: 4772
From: Одесса
On Forums: 14 years 1 month
Thanks: 56089 time(s)
Ukraine


(IMG:http://metalarea.org/images/audiocovers/2022_May/acov_tid364629_thumb.jpg)

*Artist: Noekk
*Album: The White Lady
*Year: 2021
*Genre: Progressive Rock
*Country: Germany (IMG:http://metalarea.org/forum/style_images/flags/Germany.png)
*Format: mp3@CBR320kbps
*Size: 96MB

Tracklist:
1. The White Lady I 03:29
2. The White Lady II 05:47
3. The White Lady III 04:35
4. The White Lady IV 04:12
5. The White Lady V 01:30
6. The White Lady VI 03:34
7. The White Lady VII 04:02
8. The White Lady VIII 02:27
9. The White Lady IX 01:41
10. The White Lady X 04:42
11. The White Lady XI 02:52
******************************
Total playing time: 38:51



Extended info
Line - up:
F. F. Yuggoth - Drums, Bass, Guitars (Deinonychus, Empyrium, Ewigheim, Sun of the Sleepless, The Vision Bleak, ex-Nachtmahr, ex-Eudaimony, ex-Autumnblaze, ex-Dornenreich (live))
Funghus Baldachin - Vocals, Keyboards, Guitars (Empyrium, ex-Nachtmahr, ex-Sharatan, ex-Dornenreich (live), ex-Sun of the Sleepless (live))

Guest/Session:
Fritz Stavenhagen - Narration

Noekk is the obscure Progressive Rock Project of Thomas Helm and Markus "Schwadorf" Stock of EMPYRIUM including lyricist PWK.

"The White Lady" is a concept album that features 11 Songs telling the story of the ghost (The White Lady) haunting the realms of the Plassenburg Castle in Kulmbach - home city of lyricist PKW. Musically, entirely performed on the lute instead of the classical guitar, this is the most mellow and atmospheric album of Noekk so far.


Technical info
(IMG:http://metalarea.org/images/spectrogram/2022_May/5684bdf129b1a5992e37c51d314404d9.png)
Input File: 11. The White Lady XI.mp3
Channels : 2
Sample Rate : 44100
Precision : 16-bit
Duration : 00:02:52.16 = 7592212 samples = 12911.9 CDDA sectors
File Size : 6.95M
Bit Rate : 323k
Sample Encoding: MPEG audio (layer I, II or III)
Comments :
Title=The White Lady XI
Artist=Noekk
Album=The White Lady
Tracknumber=11
Year=2021
Genre=92



Register


Go to the top of the page
  Insert nick Quick quote
+Quote Post

Reply to this topicStart new topic
1 User(s) are reading this topic (1 Guests and 0 Anonymous Users)
0 Members:

 



- Lo-Fi Version Support form
Copyrights and abuse reports form
Time is now: 6th July 2022 - 07:20:35