Welcome Guest ( Log In | Register )

> Releases Upload / Добавление релизов

Добавить релиз тут / Click here to add release
Рекомендованные обменники / Recommended file shares

> Katharos - Of Lineages Long Forgotten (2022), Symphonic Black Metal
post May 12 2022, 16:26:22
Post #1

Serial Uploader
Group Icon
Group: V.I.P
Posts: 38,607
Releases: 36751
From: Lithuania
On Forums: 14 years 3 weeks
Thanks: 455993 time(s)
Lithuania


(IMG:https://metalarea.org/images/audiocovers/2022_May/acov_tid364684_thumb.jpg)

*Artist: Katharos
*Album: Of Lineages Long Forgotten
*Year: 2022
*Genre: Symphonic Black Metal
*Country: Sweden (IMG:https://metalarea.org/forum/style_images/flags/Sweden.png)
*Format: mp3@CBR320kbps
*Size: 113MB

Tracklist:
01. Those Hornclad 06:53
02. Feigned Retreat 07:05
03. Of Lineages Long Forgotten 08:51
04. The World Serpent's Marrow 05:26
05. Lay Yersinian Siege 08:35
06. I Waged War 06:37
07. Most Dread Portent 05:14
******************************
Total playing time: 48:41

(IMG:https://metalarea.org/images/myspace.png)


(IMG:https://metalarea.org/images/youtube.png)

Technical info
(IMG:https://metalarea.org/images/spectrogram/2022_May/7be3ac84b4864c8651b3897962b57465.png)
Input File: 02 - Feigned Retreat.mp3
Channels : 2
Sample Rate : 44100
Precision : 16-bit
Duration : 00:07:05.00 = 18742500 samples = 31875 CDDA sectors
File Size : 17.2M
Bit Rate : 324k
Sample Encoding: MPEG audio (layer I, II or III)
Comments :
Title=Feigned Retreat
Artist=Katharos
Album=Of Lineages Long Forgotten
Tracknumber=2
Year=2022-05-13
Genre=Metal
Discnumber=1



Register


Go to the top of the page
  Insert nick Quick quote
+Quote Post
 
Start new topic
Replies (1 - 1)
post May 13 2022, 18:21:38
Post #2

Group: Подсевший
Posts: 22
Releases: 0
On Forums: 1 year 3 months
Thanks: 18 time(s)
Russian Federation


Мощный альбом.


Thanks:
(1) Occultas,
Go to the top of the page
  Insert nick Quick quote
+Quote Post

Reply to this topicStart new topic
1 User(s) are reading this topic (1 Guests and 0 Anonymous Users)
0 Members:

 



- Lo-Fi Version Support form
Copyrights and abuse reports form
Time is now: 3rd July 2022 - 18:45:48