Welcome Guest ( Log In | Register )

> Releases Upload / Добавление релизов

Добавить релиз тут / Click here to add release
Рекомендованные обменники / Recommended file shares

> Graham Bonnet Band - Day Out In Nowhere (2022), Neoclassical Progressive Heavy Metal/Hard Rock
post May 12 2022, 17:39:49
Post #1

Правь статус, ####!111
**************
Group: Металариец
Posts: 5,199
Releases: 4772
From: Одесса
On Forums: 14 years 1 month
Thanks: 56086 time(s)
Ukraine


(IMG:http://metalarea.org/images/audiocovers/2022_May/acov_tid364690_thumb.jpg)

*Artist: Graham Bonnet Band
*Album: Day Out In Nowhere
*Year: 2022
*Genre: Neoclassical Progressive Heavy Metal/Hard Rock
*Country: International (IMG:http://metalarea.org/forum/style_images/flags/International.png)
*Format: mp3@CBR320kbps
*Size: 111MB

Tracklist:
1. Imposter
2. 12 Steps to Heaven
3. Brave New World
4. Uncle John
5. Day Out in Nowhere
6. The Sky Is Alive
7. David's Mom
8. When We're Asleep
9. It's Just a Frickin' Song
10. Jester
11. Suzy
******************************
Total playing time: 47:16

Extended info
Line - up:
Beth-Ami Heavenstone - Bass (ex-Alcatrazz, ex-Hardly Dangerous)
Conrado Pesinato - Guitars (ex-P.U.S.)
Graham Bonnet - Vocals (EZoo, Lyraka, ex-Blackthorne, ex-Michael Schenker Fest, Bonnet, Parga & Heavenstone, Graham Bonnet's Alcatrazz, Taz Taylor Band (live), ex-Anthem, ex-Impellitteri, ex-Rainbow, ex-Alcatrazz, ex-Forcefield (Gbr), ex-Michael Schenker Group, ex-Southern Comfort, ex-The Blue Sect, ex-The Graham Bonnet Set, ex-The Marbles, ex-The Party Boys)

Guest/Session:
Alessandro Bertoni - Keyboards (ex-Aphelion, Alessandro Bertoni, ex-Worldview, ex-Esicastic)
Shane Gaalaas - Drums (Cosmosquad, Two Hundred Feet, Diesel Machine, B'z (live), ex-Artension, ex-Miloš Dodo Doležal, ex-Vinnie Moore, ex-Yngwie Malmsteen, ex-John West, ex-Hughes Turner Project, ex-Michael Schenker Group, ex-Uli Jon Roth)
Levi Dokus - Drums
Jeff Loomis - Guitars (track 10) (Jeff Loomis, Arch Enemy, Conquering Dystopia, ex-Fear-Tech, ex-System, Graham Bonnet's Alcatrazz, ex-Sanctuary (live), ex-Experiment Fear, ex-Nevermore)
Takanori Ozaki - Guitars (acoustic)
Kyle Hughes - Drums (track 10)
John Tempesta - Drums (track 8) (Motor Sister, ex-White Zombie, The Cult, ex-Exodus, ex-Helmet, ex-Prong, ex-Testament, ex-Rob Zombie, ex-Scum of the Earth, ex-Temple of the Black Moon, ex-The Dead Daisies, ex-Two-Bit Thief)
Mike Tempesta - Guitars (track 8)
Roy Z - Guitars (track 3) (Halford, Bruce Dickinson, Rob Rock, ex-Driver, Tribe of Gypsies, ex-Warrior, ex-Lambs Among Wolves, ex-Royal Flush)
Don Airey - Keyboards (track 9) (Deep Purple, Don Airey, ex-Empire, ex-Ozzy Osbourne, ex-Rainbow, ex-The Cage, ex-Dario Mollo's Crossbones (live), ex-Air Pavilion, ex-Andrew Lloyd Webber, ex-Colosseum II, ex-Cozy Powell, ex-Gary Moore, ex-Hammer, ex-Jethro Tull, ex-Living Loud, ex-Michael Schenker Group, ex-Quatermass, ex-Silver, ex-Strawbs, ex-Ten, ex-The Company of Snakes, ex-Wishbone Ash, ex-Graham Bonnet (live), ex-Micky Moody (live), ex-The Snakes (live), ex-Uli Jon Roth (live), ex-Uriah Heep (live))



Technical info
(IMG:http://metalarea.org/images/spectrogram/2022_May/2d31cc36db0371b3f4b4fa8aef26b059.png)
Input File: 01. Imposter.mp3
Channels : 2
Sample Rate : 44100
Precision : 16-bit
Duration : 00:03:33.10 = 9397490 samples = 15982.1 CDDA sectors
File Size : 8.52M
Bit Rate : 320k
Sample Encoding: MPEG audio (layer I, II or III)
Comments :
Title=Imposter
Artist=Graham Bonnet Band
Album=Day out in Nowhere
Tracknumber=1
Year=2022
Genre=Heavy Metal | Hard Rock



Register


Go to the top of the page
  Insert nick Quick quote
+Quote Post
 
Start new topic
Replies (1 - 7)
post May 13 2022, 08:23:02
Post #2

hearer & reader
**************
Group: Металариец
Posts: 10,305
Releases: 211
From: Moscow
On Forums: 14 years 9 months
Thanks: 12534 time(s)
Russian Federation





Thanks:
Go to the top of the page
  Insert nick Quick quote
+Quote Post
post May 13 2022, 08:47:21
Post #3

Дежурный по межполовым вопросам
**************
Group: Металариец
Posts: 3,471
Releases: 2
From: Yaroslavl
On Forums: 5 years 9 months
Thanks: 2171 time(s)
Northern Mariana Islands


С таким составом должен быть, как минимум, шедевр.
Go to the top of the page
  Insert nick Quick quote
+Quote Post
post May 13 2022, 08:49:33
Post #4

Правь статус, ####!111
**************
Group: Металариец
Posts: 51,011
Releases: 935
On Forums: 13 years 1 month
Thanks: 47694 time(s)
Russian Federation


ЦИТАТА(Faust_Vulkan_16 @ May 13 2022, 10:47:21) *
С таким составом должен быть, как минимум, шедевр.


Фррр, согласен, состав бомбовый, конечно. Шедевр-не шедевр, но Грэм харизматичный и крутой вокалист, ожидания вокруг сабжа высоки, разумеется) Атпиши, как паслухашь) (IMG:style_emoticons/default/bye.gif)
Go to the top of the page
  Insert nick Quick quote
+Quote Post
post May 13 2022, 13:07:17
Post #5

Семь Литров
*******
Group: Металариец
Posts: 727
Releases: 0
From: Нижний Новгород
On Forums: 15 years 11 months
Thanks: 301 time(s)
Russian Federation


Нуууу, как-то хелловинисто (видимо, из-за вокальных дел) что ли, но не столь энергично.
Go to the top of the page
  Insert nick Quick quote
+Quote Post
post May 13 2022, 13:11:31
Post #6

Правь статус, ####!111
**************
Group: Металариец
Posts: 51,011
Releases: 935
On Forums: 13 years 1 month
Thanks: 47694 time(s)
Russian Federation


ЦИТАТА(Terrorizer @ May 13 2022, 15:07:17) *
Нуууу, как-то хелловинисто (видимо, из-за вокальных дел) что ли, но не столь энергично.


Дак ему 74 годика, в этом возрасте каждому дай Бог не на пенсии сиднем сидеть, а выпускать метал (!) альбомы, оря в микрофон. (IMG:style_emoticons/default/25.gif)

Go to the top of the page
  Insert nick Quick quote
+Quote Post
post May 13 2022, 14:04:26
Post #7

Друг Уточек
****
Group: Металариец
Posts: 341
Releases: 65
From: Гексия
On Forums: 13 years 6 months
Thanks: 313 time(s)
Russian Federation


Дедушка-рокер в последнее время активно выпускает альбомы. Как обычно порадовал качественным Hard'n'Heavy. Желаю ему здоровья и добра.


Thanks:
Go to the top of the page
  Insert nick Quick quote
+Quote Post
post May 13 2022, 14:36:14
Post #8

Семь Литров
*******
Group: Металариец
Posts: 727
Releases: 0
From: Нижний Новгород
On Forums: 15 years 11 months
Thanks: 301 time(s)
Russian Federation


QUOTE(vosmidesijatye @ May 13 2022, 15:11:31) *
Дак ему 74 годика, в этом возрасте каждому дай Бог не на пенсии сиднем сидеть, а выпускать метал (!) альбомы, оря в микрофон. (IMG:style_emoticons/default/25.gif)

Я к тому, что не павер метал. (IMG:style_emoticons/default/smile1.gif)
А, так-то, да - жить и здравствовать.
Go to the top of the page
  Insert nick Quick quote
+Quote Post

Reply to this topicStart new topic
1 User(s) are reading this topic (1 Guests and 0 Anonymous Users)
0 Members:

 



- Lo-Fi Version Support form
Copyrights and abuse reports form
Time is now: 5th July 2022 - 22:52:59