Welcome Guest ( Log In | Register )

> Releases Upload / Добавление релизов

Добавить релиз тут / Click here to add release
Рекомендованные обменники / Recommended file shares

> Corpus Christii - The Bitter End Of Old (2022), Black Metal
post May 12 2022, 17:44:13
Post #1

Правь статус, ####!111
**************
Group: Металариец
Posts: 5,199
Releases: 4772
From: Одесса
On Forums: 14 years 1 month
Thanks: 56086 time(s)
Ukraine


(IMG:http://metalarea.org/images/audiocovers/2022_May/acov_tid364691_thumb.jpg)

*Artist: Corpus Christii
*Album: The Bitter End Of Old
*Year: 2022
*Genre: Black Metal
*Country: Portugal (IMG:http://metalarea.org/forum/style_images/flags/Portugal.png)
*Format: mp3@CBR320kbps
*Size: 94MB

Tracklist:
1. Amargura 02:24
2. The Predominance 04:16
3. Unearthly Forgotten Memory 04:04
4. Fragmented Chaos Disharmony 03:21
5. From Here to Nothing 04:47
6. Behind the Shadow 03:43
7. To the End, to the Void 05:41
8. For I Am All 05:14
9. Heinous 04:59
******************************
Total playing time: 38:29

bandcamp

Extended info
Line - up:

Nocturnus Horrendus - All instruments, Vocals (Coldness, Maldito, Morte Incandescente, Nox Inferi, Son of Cain, Storm Legion, ex-A Tree of Signs, ex-Genocide Kommando, ex-Noctu, Subcaos, ex-Decayed (live), ex-Irae (live))
J. Goat - Guitars, Bass (Filii Nigrantium Infernalium, Göatfukk, Infra, Enthroned (live), Irae (live), Lvcifyre (live), Morte Incandescente (live), Nefret (live), The Sorcerer (live), Vltimas (live), ex-Cold as Blood, ex-Neurotic, ex-Alchemist, ex-Pestilência (live), Systemik Viølence, ex-Theriomorphic, ex-Crystalline Darkness (live), ex-Lux Ferre (live), ex-Formaldehyde, ex-Utopium, ex-Colisão Frontal, ex-Mordaça, ex-Revengeance)

«The Bitter End of Old» is the 9th full length album by the Portuguese Black Metal Legends Corpus Christii. On this opus the band have seem to find a way to surpass all their previous records in production as well on musical approach by a clear mile. A combination of old school black metal tradition with new sought elements that create a blasphemous atmosphere filled with darkness and evil.

The guitars are mesmerizing, filled with heaviness and the right dose of melodies where the bass guitar underlines the heaviness and yet have a clear production together. The drums have their own pattern and stand out by delivering the right punch on the snare and kick, finalized by the exact same punch on the fill sound. And last but not least, the vocals are harsh, hateful and preach pure torment and blasphemy.

All in all this record is a beast! A supreme Black Metal creation that every fan of the old days will like to have in their collection.


Technical info
(IMG:http://metalarea.org/images/spectrogram/2022_May/04a3926c01e8dcf8445ec07c162d7a6a.png)
Input File: 03 - Unearthly Forgotten Memory.mp3
Channels : 2
Sample Rate : 44100
Precision : 16-bit
Duration : 00:04:04.00 = 10760400 samples = 18300 CDDA sectors
File Size : 9.78M
Bit Rate : 321k
Sample Encoding: MPEG audio (layer I, II or III)
Comments :
Title=Unearthly Forgotten Memory
Artist=Corpus Christii
Album=The Bitter End of Old
Tracknumber=3
Year=2022
Genre=138



Register


This post has been edited by DarkHorde: May 13 2022, 12:56:32


Go to the top of the page
  Insert nick Quick quote
+Quote Post
 
Start new topic
Replies (1 - 8)
post May 13 2022, 09:06:50
Post #2

Правь статус, ####!111
**************
Group: Металариец
Posts: 51,011
Releases: 935
On Forums: 13 years 1 month
Thanks: 47694 time(s)
Russian Federation


Кароче, эта, зерцал вам, зерцал

@320

Register


Register


Thanks:
Go to the top of the page
  Insert nick Quick quote
+Quote Post
post May 14 2022, 06:56:36
Post #3

Group: Подсевший
Posts: 35
Releases: 4
On Forums: 3 months 3 days
Thanks: 87 time(s)
Russian Federation


Фоном пожужжать может, а так ничего стоящего.
Go to the top of the page
  Insert nick Quick quote
+Quote Post
post May 14 2022, 14:02:09
Post #4

Семь Литров
*******
Group: Металариец
Posts: 741
Releases: 0
From: Лыткарино
On Forums: 3 years 1 month
Thanks: 193 time(s)
Russian Federation


Да, на один раз альбомчик.
Go to the top of the page
  Insert nick Quick quote
+Quote Post
post May 16 2022, 10:24:36
Post #5

While Waiting the Worms
***********
Group: Металариец
Posts: 1,501
Releases: 0
On Forums: 8 years 6 months
Thanks: 2315 time(s)
Unknown


(IMG:style_emoticons/default/21.gif) (IMG:style_emoticons/default/21.gif) (IMG:style_emoticons/default/21.gif)


Thanks:
(1) WOLAND,
Go to the top of the page
  Insert nick Quick quote
+Quote Post
post May 16 2022, 12:09:18
Post #6

Full-of-Hate
**************
Group: Металариец
Posts: 4,951
Releases: 0
From: Moscow
On Forums: 13 years 4 days
Thanks: 5515 time(s)
Russian Federation


Хилый звук, пресный материал, по совокупности впечатлений - рядовой альбом, записанный ради собственного эго. Что девятый альбом, что двадцать девятый...

Честно сказать, я слушаю каждый новый альбом Корпусов и всё больше задаюсь вопросом о целесообразности. Дай б-г всём такой уверенности в своих силах. Но слушать это второй раз я не буду.


Thanks:
Go to the top of the page
  Insert nick Quick quote
+Quote Post
post May 19 2022, 18:12:27
Post #7

Правь статус, ####!111
**************
Group: Металариец
Posts: 51,011
Releases: 935
On Forums: 13 years 1 month
Thanks: 47694 time(s)
Russian Federation


Дааа, а ведь не так давно группа собирала большой урожай похвал и комплиментов от любителей бм...
Go to the top of the page
  Insert nick Quick quote
+Quote Post
post May 28 2022, 12:03:15
Post #8

Два Литра
**
Group: Завсегдатай
Posts: 176
Releases: 30
On Forums: 9 years 10 months
Thanks: 2150 time(s)
Unknown


А мне зашло (IMG:style_emoticons/default/smile1.gif) Нет, это, конечно, не высокое черное искусство наподобие последнего Blut aus Nord, но вообще добротный blyadский черный метал с башкотрясом, хуками и ugh! моментами. Сколько себя помню, группа всегда была таким хорошим середняком на угореть пару раз. Такое обычное простое приземленное тоже нужно.


Thanks:
(1) Chasm,
Go to the top of the page
  Insert nick Quick quote
+Quote Post
post Jun 26 2022, 12:39:23
Post #9

Семь Литров
*******
Group: Металариец
Posts: 716
Releases: 15
From: Brasil - Sao Paulo
On Forums: 2 years 2 months
Thanks: 590 time(s)
Brazil


M4A -
Register


Thanks:
(1) Ignativs,
Go to the top of the page
  Insert nick Quick quote
+Quote Post

Reply to this topicStart new topic
1 User(s) are reading this topic (1 Guests and 0 Anonymous Users)
0 Members:

 



- Lo-Fi Version Support form
Copyrights and abuse reports form
Time is now: 6th July 2022 - 00:01:19