Welcome Guest ( Log In | Register )

> Releases Upload / Добавление релизов

Добавить релиз тут / Click here to add release
Рекомендованные обменники / Recommended file shares

> Nechochwen - Kanawha Black (2022), Melodic Black Metal (D)
post May 12 2022, 18:55:24
Post #1

Правь статус, ####!111
**************
Group: Металариец
Posts: 5,097
Releases: 4684
From: Одесса
On Forums: 13 years 11 months
Thanks: 54448 time(s)
Ukraine


(IMG:http://metalarea.org/images/audiocovers/2022_May/acov_tid364695_thumb.jpg)

*Artist: Nechochwen
*Album: Kanawha Black
*Year: 2022
*Genre: Melodic Black Metal
*Country: United States (IMG:http://metalarea.org/forum/style_images/flags/United%20States.png)
*Format: mp3@CBR320kbps
*Size: 100MB

Tracklist:
1. Kanawha Black 06:23
2. The Murky Deep 04:03
3. I Can Die But Once 06:16
4. A Cure for the Winter Plagues 03:32
5. Visions, Dreams, and Signs 07:28
6. Generations of War 06:16
7. Across the Divide 07:50
******************************
Total playing time: 41:48



Extended info
Line - up:

Pohonasin - Bass, Drums, Vocals (backing) (Coldfells, Icarus Witch, Infirmary, Ironflame, Silverblood, Unwilling Flesh, ex-Angelrust, ex-Moonthrone, Brimstone Coven, Forest of the Soul, ZOM, ex-Dofka, ex-Obsequiae, ex-Dethroned, ex-Harvist)
Nechochwen - Vocals, Guitars, E-bow, Keyboards, Hand drum, Floor tom, Rattle, Cedar Flute, Lalawas (Coldfells, End, Infirmary, ex-Angelrust, Forest of the Soul, ex-Dethroned, ex-Harvist)


Technical info
(IMG:http://metalarea.org/images/spectrogram/2022_May/dd1fe1627832e0d8f41baa277d908967.png)
Input File: 05 - Visions, Dreams, and Signs.mp3
Channels : 2
Sample Rate : 44100
Precision : 16-bit
Duration : 00:07:27.00 = 19712700 samples = 33525 CDDA sectors
File Size : 17.9M
Bit Rate : 321k
Sample Encoding: MPEG audio (layer I, II or III)
Comments :
Title=Visions, Dreams, and Signs
Artist=Nechochwen
Album=Kanawha Black
Tracknumber=5
Year=2022-05-13
Genre=Folk | Black Metal, Neofolk



Register


Go to the top of the page
  Insert nick Quick quote
+Quote Post
 
Start new topic
Replies (1 - 6)
post May 13 2022, 10:31:30
Post #2

Добрый язычник
**********
Group: Металариец
Posts: 1,001
Releases: 11
From: Санкт-Петербург
On Forums: 16 years 5 months
Thanks: 323 time(s)
Russian Federation


Интересно вроде, будем слушать
https://www.youtube.com/watch?v=UOZnYPoL45Y
Go to the top of the page
  Insert nick Quick quote
+Quote Post
post May 13 2022, 12:37:32
Post #3

De Mysteriis Dom Sathanas
**************
Group: Металариец
Posts: 4,428
Releases: 64
From: Doom
On Forums: 13 years 10 months
Thanks: 3835 time(s)
Russian Federation


канава блэк (IMG:style_emoticons/default/1488.gif)
Go to the top of the page
  Insert nick Quick quote
+Quote Post
post May 13 2022, 13:11:50
Post #4

кручу наждак
**************
Group: Металариец
Posts: 5,530
Releases: 107
From: Самара
On Forums: 12 years 2 weeks
Thanks: 4400 time(s)
Russian Federation


ЦИТАТА
Стиль: Melodic Black Metal

Вроде раньше атмосферик/фолком были. Жаль, если правда переметнулись в мелодик.
Go to the top of the page
  Insert nick Quick quote
+Quote Post
post May 14 2022, 01:27:26
Post #5

Четыре Литра
****
Group: Металариец
Posts: 330
Releases: 0
On Forums: 3 years 11 months
Thanks: 145 time(s)
Mexico


Amazing US folk/black metal (IMG:style_emoticons/default/9.gif) (IMG:style_emoticons/default/9.gif)
Go to the top of the page
  Insert nick Quick quote
+Quote Post
post May 15 2022, 03:51:17
Post #6

кручу наждак
**************
Group: Металариец
Posts: 5,530
Releases: 107
From: Самара
On Forums: 12 years 2 weeks
Thanks: 4400 time(s)
Russian Federation


Послушал.
Хорошая новость: это не мелоблек. Хотя и с его элементами.
Плохая новость: теперь это полуакустический паган/фолк, строго на любителя.
Go to the top of the page
  Insert nick Quick quote
+Quote Post
post May 25 2022, 08:53:11
Post #7

добрый мизантроп
**************
Group: Металариец
Posts: 2,961
Releases: 1
From: Менск
On Forums: 11 years 6 months
Thanks: 1315 time(s)
Madagascar


kinda post black
Go to the top of the page
  Insert nick Quick quote
+Quote Post

Reply to this topicStart new topic
2 User(s) are reading this topic (2 Guests and 0 Anonymous Users)
0 Members:

 



- Lo-Fi Version Support form
Copyrights and abuse reports form
Time is now: 29th May 2022 - 12:49:40