Welcome Guest ( Log In | Register )

> Releases Upload / Добавление релизов

Добавить релиз тут / Click here to add release
Рекомендованные обменники / Recommended file shares

> Outshine - The Awakening (2022), Melodic Gothic Metal (D4)
post May 13 2022, 04:48:44
Post #1

Правь статус, ####!111
**************
Group: Металариец
Posts: 2,683
Releases: 1238
On Forums: 11 years 6 months
Thanks: 24495 time(s)
Russian Federation


(IMG:https://metalarea.org/images/audiocovers/2022_May/acov_tid364704_thumb.jpg)

*Artist: Outshine
*Album: The Awakening
*Year: 2022
*Genre: Melodic Gothic Metal
*Country: Sweden (IMG:https://metalarea.org/forum/style_images/flags/Sweden.png)
*Format: mp3@CBR320kbps
*Size: 94MB

Tracklist:
01.It's All Lies 07:04
02.Our Misery 04:47
03.Love Is Dead 04:16
04.Swe Hates Me 04:16
05.No More Reasons 03:39
06.Darkness Within (Agony) 04:27
07.I Was The One 04:37
08.We Know Who You Are 07:56
******************************
Total playing time: 41:02

(IMG:https://metalarea.org/images/youtube.png)

Technical info
(IMG:https://metalarea.org/images/spectrogram/2022_May/ee8b3f4d6c23bcffa01f16131b1fbb77.png)
Input File: 05 - No More Reasons.mp3
Channels : 2
Sample Rate : 44100
Precision : 16-bit
Duration : 00:03:39.42 = 9676290 samples = 16456.3 CDDA sectors
File Size : 8.93M
Bit Rate : 326k
Sample Encoding: MPEG audio (layer I, II or III)
Comments :
Title=No More Reasons
Artist=Outshine
Album=The Awakening
Tracknumber=05
Year=2022
Genre=Melodic Gothic Metal



Register


Go to the top of the page
  Insert nick Quick quote
+Quote Post
 
Start new topic
Replies (1 - 1)
post May 14 2022, 04:12:23
Post #2

MDM-Thrash Metal
**************
Group: Металариец
Posts: 11,103
Releases: 1486
From: Одесса
On Forums: 14 years 9 months
Thanks: 35375 time(s)
Ukraine



Go to the top of the page
  Insert nick Quick quote
+Quote Post

Reply to this topicStart new topic
2 User(s) are reading this topic (2 Guests and 0 Anonymous Users)
0 Members:

 



- Lo-Fi Version Support form
Copyrights and abuse reports form
Time is now: 29th May 2022 - 13:03:42