Welcome Guest ( Log In | Register )

 
Reply to this topicStart new topic
> Eerified Catacomb & Obserdity - Eerified Catacomb ⛧ Obserdity [split] (2021), Raw Black Metal | Raw Black Metal
post May 13 2022, 08:21:12
Post #1

Absorbence
**************
Group: Металариец
Posts: 2,136
Releases: 424
From: Vastland Abyss of Cthulhu
On Forums: 15 years 10 months
Thanks: 7266 time(s)
United States


(IMG:https://metalarea.org/images/audiocovers/2022_May/acov_tid364713_thumb.jpg)

*Artist: Eerified Catacomb & Obserdity
*Album: Eerified Catacomb ⛧ Obserdity [split]
*Year: 2021
*Genre: Raw Black Metal | Raw Black Metal
*Country: Canada (IMG:https://metalarea.org/forum/style_images/flags/Canada.png) | United States (IMG:https://metalarea.org/forum/style_images/flags/United%20States.png)
*Format: mp3@CBR320kbps
*Size: 58MB

Tracklist:
Eerified Catacomb:
1. 13th Resurrection of a Cadavre Long Rotted 03:54
2. Gaze Locked to the Thicket Throne 03:40
3. The True Ruler of Earth 05:54
Obserdity:
4. Introduction 01:14
5. Untitled 05:46
6. Untitled 05:20
******************************
Total playing time: 25:48

Preview 1

Technical info
(IMG:https://metalarea.org/images/spectrogram/2022_May/5636f83f7e242bbf98befbc23919e0e3.png)
Input File: 05. Obserdity - Untitled.mp3
Channels : 2
Sample Rate : 48000
Precision : 16-bit
Duration : 00:05:46.75 = 16644240 samples ~ 26006.6 CDDA sectors
File Size : 13.9M
Bit Rate : 320k
Sample Encoding: MPEG audio (layer I, II or III)
Comments :
Title=Untitled
Artist=Obserdity
Album=Eerified Catacomb ⛧ Obserdity
Tracknumber=05
Year=2021
Genre=Raw Black Metal



Register


Go to the top of the page
  Insert nick Quick quote
+Quote Post

Reply to this topicStart new topic
1 User(s) are reading this topic (1 Guests and 0 Anonymous Users)
0 Members:

 



- Lo-Fi Version Support form
Copyrights and abuse reports form
Time is now: 25th September 2022 - 08:16:34