Welcome Guest ( Log In | Register )

> Releases Upload / Добавление релизов

Добавить релиз тут / Click here to add release
Рекомендованные обменники / Recommended file shares

 
Reply to this topicStart new topic
> Unendlich - Misanthrope Divine [ep] (2022), Black Metal (D)
post May 13 2022, 10:40:24
Post #1

Правь статус, ####!111
**************
Group: Металариец
Posts: 2,977
Releases: 1515
On Forums: 11 years 7 months
Thanks: 29783 time(s)
Russian Federation


(IMG:https://metalarea.org/images/audiocovers/2022_May/acov_tid364724_thumb.jpg)

*Artist: Unendlich
*Album: Misanthrope Divine [ep]
*Year: 2022
*Genre: Black Metal
*Country: United States (IMG:https://metalarea.org/forum/style_images/flags/United%20States.png)
*Format: mp3@CBR320kbps
*Size: 55MB

Tracklist:
1.Stillness In Death 05:32
2.No Light Will Take Me 03:59
3.Misanthrope Divine 05:10
4.Rearranged To Be Broken 04:37
5.Secret of Consequence 04:50
******************************
Total playing time: 24:08



Technical info
(IMG:https://metalarea.org/images/spectrogram/2022_May/9d98c385204a5d27d87d1677bb5ee925.png)
Input File: 02-No Light Will Take Me.mp3
Channels : 2
Sample Rate : 44100
Precision : 16-bit
Duration : 00:03:59.09 = 10543825 samples = 17931.7 CDDA sectors
File Size : 10.0M
Bit Rate : 335k
Sample Encoding: MPEG audio (layer I, II or III)
Comments :
Title=No Light Will Take Me
Artist=Unendlich
Album=Misanthrope Divine
Tracknumber=02
Year=2022
Genre=Black Metal



Register


Go to the top of the page
  Insert nick Quick quote
+Quote Post

Reply to this topicStart new topic
1 User(s) are reading this topic (1 Guests and 0 Anonymous Users)
0 Members:

 



- Lo-Fi Version Support form
Copyrights and abuse reports form
Time is now: 5th July 2022 - 22:18:17