Welcome Guest ( Log In | Register )

> Releases Upload / Добавление релизов

Добавить релиз тут / Click here to add release
Рекомендованные обменники / Recommended file shares

 
Reply to this topicStart new topic
> Morfer - Tribunal (2022), Pagan/Black Metal
post May 13 2022, 11:06:22
Post #1

Правь статус, ####!111
**************
Group: Металариец
Posts: 29,676
Releases: 21829
From: Г.Харьков
On Forums: 10 years 1 month
Thanks: 452664 time(s)
Unknown


(IMG:https://metalarea.org/images/audiocovers/2022_May/acov_tid364725_thumb.jpg)

*Artist: Morfer
*Album: Tribunal
*Year: 2022
*Genre: Pagan/Black Metal
*Country: Kyrgyzstan (IMG:https://metalarea.org/forum/style_images/flags/Kyrgyzstan.png)
*Format: mp3@CBR320kbps
*Size: 105MB

Tracklist:
1. Deep Sleep 05:41
2. Forbannet 05:09
3. Christ Is Not Risen 04:06
4. Through the Forest 09:08
5. Vanndalen 05:00
6. Dark Wisdom 04:43
7. Dead Earth 06:59
8. Pagan Frost 06:02
******************************
Total playing time: 46:48




Extended info
Untrupus Bass
Constant Drums
Alfer Guitars (2019-present)
See also: Kashgar
Morgod Vocals, Guitars (2019-present)





Technical info
(IMG:https://metalarea.org/images/spectrogram/2022_May/b5cdaefe52820fe338366405a2b5b89e.png)
Input File: 07 - Dead Earth.mp3
Channels : 2
Sample Rate : 44100
Precision : 16-bit
Duration : 00:06:59.51 = 18500215 samples = 31463 CDDA sectors
File Size : 16.8M
Bit Rate : 320k
Sample Encoding: MPEG audio (layer I, II or III)
Comments :
Title=Dead Earth
Artist=Morfer
Album=Tribunal
Tracknumber=7
Year=2022
Genre=Black Metal



Register


Go to the top of the page
  Insert nick Quick quote
+Quote Post

Reply to this topicStart new topic
1 User(s) are reading this topic (1 Guests and 0 Anonymous Users)
0 Members:

 



- Lo-Fi Version Support form
Copyrights and abuse reports form
Time is now: 5th July 2022 - 23:37:37