Welcome Guest ( Log In | Register )

> Releases Upload / Добавление релизов

Добавить релиз тут / Click here to add release
Рекомендованные обменники / Recommended file shares

> Anthems Of Isolation - Apocalyptic Portrayals (2022), Funeral/Atmospheric Doom Metal
post May 13 2022, 11:36:22
Post #1

Правь статус, ####!111
**************
Group: Металариец
Posts: 29,341
Releases: 21546
From: Г.Харьков
On Forums: 10 years 2 weeks
Thanks: 445049 time(s)
Unknown


(IMG:https://metalarea.org/images/audiocovers/2022_May/acov_tid364726_thumb.jpg)

*Artist: Anthems Of Isolation
*Album: Apocalyptic Portrayals
*Year: 2022
*Genre: Funeral/Atmospheric Doom Metal
*Country: Iraq (IMG:https://metalarea.org/forum/style_images/flags/Iraq.png)
*Format: mp3@CBR320kbps
*Size: 94MB

Tracklist:
1. Signs Of Cataclysm 08:24
2. Withering Divinities 06:00
3. Deep Dark Ocean: Part I 05:30
4. Deep Dark Ocean: Part II 07:44
5. As Pazuzu Rises 06:30
6. Darkness At The End Of The Tunnel 07:44
******************************
Total playing time: 41:52




Extended info
Lord Erragal - All instruments
Karam Endzeit - Vocals





Technical info
(IMG:https://metalarea.org/images/spectrogram/2022_May/2c60fe1623f50bae22357a94b14431a5.png)
Input File: 01 - Signs of Cataclysm.mp3
Channels : 2
Sample Rate : 44100
Precision : 16-bit
Duration : 00:08:24.00 = 22226400 samples = 37800 CDDA sectors
File Size : 20.2M
Bit Rate : 320k
Sample Encoding: MPEG audio (layer I, II or III)
Comments :
Title=Signs of Cataclysm
Artist=Anthems Of Isolation
Album=Apocalyptic Portrayals
Tracknumber=1
Year=2022
Genre=Metal



Register


Go to the top of the page
  Insert nick Quick quote
+Quote Post
 
Start new topic
Replies (1 - 2)
post May 13 2022, 15:42:04
Post #2

Пять Литров
*****
Group: Металариец
Posts: 460
Releases: 0
On Forums: 4 years 3 months
Thanks: 161 time(s)
Belarus


Какое-то все сырое, однообразное и вокал преотвратнейший.
Go to the top of the page
  Insert nick Quick quote
+Quote Post
post May 16 2022, 20:40:17
Post #3

Четыре Литра
****
Group: Металариец
Posts: 324
Releases: 1
On Forums: 15 years 1 month
Thanks: 32 time(s)
Russian Federation


норм вокал
Go to the top of the page
  Insert nick Quick quote
+Quote Post

Reply to this topicStart new topic
1 User(s) are reading this topic (1 Guests and 0 Anonymous Users)
0 Members:

 



- Lo-Fi Version Support form
Copyrights and abuse reports form
Time is now: 29th May 2022 - 13:47:00