Welcome Guest ( Log In | Register )

 
Reply to this topicStart new topic
> Terror - Terror [demo] (1994), Thrash Metal/Hardcore (D)
post May 13 2022, 11:48:20
Post #1

Подвал
**************
Group: Металариец
Posts: 17,245
Releases: 9855
From: Far East (Khabarovsk)
On Forums: 13 years 4 months
Thanks: 113502 time(s)
Russian Federation


(IMG:http://metalarea.org/images/audiocovers/2022_May/acov_tid364727_thumb.jpg)

*Artist: Terror
*Album: Terror [demo]
*Year: 1994
*Genre: Thrash Metal/Hardcore
*Country: Norway (IMG:http://metalarea.org/forum/style_images/flags/Norway.png)
*Format: mp3@CBR192kbps
*Size: 27MB

Tracklist:
1. Nazi 02:44
2. Saw 04:00
3. Sickness 03:30
4. Evil 03:02
5. You 02:09
6. Shades Of Reality 04:13
******************************
Total playing time: 19:38

Extended info
Recorded at Uffa, Trondheim in 1994.


Technical info
(IMG:http://metalarea.org/images/spectrogram/2022_May/997bd448383926abb755fcb922965f08.png)
Input File: 01-Nazi.mp3
Channels : 2
Sample Rate : 44100
Precision : 16-bit
Duration : 00:02:43.64 = 7216568 samples = 12273.1 CDDA sectors
File Size : 3.93M
Bit Rate : 192k
Sample Encoding: MPEG audio (layer I, II or III)
Comments :
Title=Nazi
Artist=Terror (Nor)
Album=Terror Demo 94
Tracknumber=01
Year=1994
Genre=Thrash Metal



Register


Go to the top of the page
  Insert nick Quick quote
+Quote Post

Reply to this topicStart new topic
1 User(s) are reading this topic (1 Guests and 0 Anonymous Users)
0 Members:

 



- Lo-Fi Version Support form
Copyrights and abuse reports form
Time is now: 29th May 2022 - 11:44:31