Welcome Guest ( Log In | Register )

> Releases Upload / Добавление релизов

Добавить релиз тут / Click here to add release
Рекомендованные обменники / Recommended file shares

> Disharmony - Gods Made Of Flesh (2022), Heavy/Doom Metal
post May 13 2022, 12:03:34
Post #1

Правь статус, ####!111
**************
Group: Металариец
Posts: 29,341
Releases: 21544
From: Г.Харьков
On Forums: 10 years 2 weeks
Thanks: 445037 time(s)
Unknown


(IMG:https://metalarea.org/images/audiocovers/2022_May/acov_tid364728_thumb.jpg)

*Artist: Disharmony
*Album: Gods Made Of Flesh
*Year: 2022
*Genre: Heavy/Doom Metal
*Country: Greece (IMG:https://metalarea.org/forum/style_images/flags/Greece.png)
*Format: mp3@CBR320kbps
*Size: 130MB

Tracklist:
1. The Cynic and the Beggar 05:20
2. Nogard 04:22
3. Cruel and Bitter 05:46
4. The Cry of the Gods 06:59
5. Dreamers Lost 01:42
6. Of Flesh 07:34
7. Trigger of Pleasure 04:35
8. Desertion 06:31
9. The Shores of Our Destiny 01:05
10. Under the Waves 05:31
11. L.I.F.E. 08:03
******************************
Total playing time: 57:28




Extended info
Stefanos Georgitsopoulos Guitars
Yannis Karousiotis Guitars
Christos Kounelis Vocals
Panagiotis Gatsopoulos Bass
Nikos Miras Drums





Technical info
(IMG:https://metalarea.org/images/spectrogram/2022_May/206abbbd9e8f64a85e387d9c817a09c2.png)
Input File: 08 - Desertion.mp3
Channels : 2
Sample Rate : 44100
Precision : 16-bit
Duration : 00:06:31.81 = 17278777 samples = 29385.7 CDDA sectors
File Size : 15.7M
Bit Rate : 320k
Sample Encoding: MPEG audio (layer I, II or III)
Comments :
Title=Desertion
Artist=Disharmony
Album=Gods Made of Flesh
Tracknumber=8
Year=2022
Genre=Metal



Register


Go to the top of the page
  Insert nick Quick quote
+Quote Post
 
Start new topic
Replies (1 - 3)
post May 13 2022, 21:16:43
Post #2

Мегаманьяк
***********
Group: Металариец
Posts: 1,588
Releases: 0
From: Russian Federation - St.Petersburg
On Forums: 13 years 2 months
Thanks: 444 time(s)
Russian Federation


Кайфовый однако "Doom"! (IMG:style_emoticons/default/smile1.gif) (IMG:style_emoticons/default/1488.gif)
Go to the top of the page
  Insert nick Quick quote
+Quote Post
post May 15 2022, 17:55:44
Post #3

necrophilosopher
**********
Group: Металариец
Posts: 1,127
Releases: 0
From: Ад-на-Земле
On Forums: 13 years 5 months
Thanks: 1031 time(s)
Uzbekistan


Это не совсем то, что написано в графе "жанр", но блин, как же это здорово... (IMG:style_emoticons/default/metaler.gif)
Альбом неспетый Уоррелом Дэйном и незаписанный Nevermore, но достойный их, воистину!
Go to the top of the page
  Insert nick Quick quote
+Quote Post
post May 19 2022, 05:44:55
Post #4

i listen to black metal
**************
Group: Металариец
Posts: 3,334
Releases: 144
From: Москва
On Forums: 15 years 5 months
Thanks: 2443 time(s)
Russian Federation


с хренового блэка съехали в эту чушь....
Go to the top of the page
  Insert nick Quick quote
+Quote Post

Reply to this topicStart new topic
1 User(s) are reading this topic (1 Guests and 0 Anonymous Users)
0 Members:

 



- Lo-Fi Version Support form
Copyrights and abuse reports form
Time is now: 29th May 2022 - 11:57:11