Welcome Guest ( Log In | Register )

> Releases Upload / Добавление релизов

Добавить релиз тут / Click here to add release
Рекомендованные обменники / Recommended file shares

 
Reply to this topicStart new topic
> B.A.R.F. - Région Sauvage (2022), Thrash Metal/Crossover (D10)
post May 13 2022, 14:01:43
Post #1

Правь статус, ####!111
**************
Group: Металариец
Posts: 29,341
Releases: 21544
From: Г.Харьков
On Forums: 10 years 2 weeks
Thanks: 445042 time(s)
Unknown


(IMG:https://metalarea.org/images/audiocovers/2022_May/acov_tid364734_thumb.jpg)

*Artist: B.A.R.F.
*Album: Région Sauvage
*Year: 2022
*Genre: Thrash Metal/Crossover
*Country: Canada (IMG:https://metalarea.org/forum/style_images/flags/Canada.png)
*Format: mp3@CBR320kbps
*Size: 74MB

Tracklist:
1. Bipède à plomb
2. Comme Chartrand
3. Dans le rouge de tes yeux
4. Québec Rock
5. Abysse
6. Illégal
7. S’en sortir
8. Colère de dieu
9. Y va tu toujours y avoir
10. Terricide
11. Un musicien parmi tant d’autres
******************************
Total playing time: 30:12




Extended info
Dominic Lapointe Bass
See also: Augury, First Fragment, Gorguts (live), Nader Sadek (live), Atheretic, ex-Catuvolcus, ex-Satanized, Humanoid (Can), Teramobil, ex-Beyond Creation, ex-Gore, ex-Negativa, ex-Quo Vadis (live)
Denis Lepage Guitars, Bass
See also: ex-Groovy Aardvark
Marc Vaillancourt Vocals
See also: ex-Les Ékorchés, ex-Black Cloud
Carlos Araya Drums (2012-present)
See also: Anonymus, ex-Spelldown


Technical info
(IMG:https://metalarea.org/images/spectrogram/2022_May/22461104a608ad042145d938295ed759.png)
Input File: 11 - Un musicien parmi tant d\'autres.mp3
Channels : 2
Sample Rate : 44100
Precision : 16-bit
Duration : 00:04:21.00 = 11510100 samples = 19575 CDDA sectors
File Size : 11.2M
Bit Rate : 344k
Sample Encoding: MPEG audio (layer I, II or III)
Comments :
Title=Un musicien parmi tant d'autres
Artist=B.A.R.F.
Album=Région Sauvage
Tracknumber=11
Year=2022-05-13
Genre=Rock
Discnumber=1



Register


Go to the top of the page
  Insert nick Quick quote
+Quote Post

Reply to this topicStart new topic
1 User(s) are reading this topic (1 Guests and 0 Anonymous Users)
0 Members:

 



- Lo-Fi Version Support form
Copyrights and abuse reports form
Time is now: 29th May 2022 - 12:20:30