Welcome Guest ( Log In | Register )

> Releases Upload / Добавление релизов

Добавить релиз тут / Click here to add release
Рекомендованные обменники / Recommended file shares

> Voorhees - Chapter III (2022), Old School Death Metal (D4)
post May 13 2022, 14:19:17
Post #1

Правь статус, ####!111
**************
Group: Металариец
Posts: 29,651
Releases: 21800
From: Г.Харьков
On Forums: 10 years 1 month
Thanks: 451617 time(s)
Unknown


(IMG:https://metalarea.org/images/audiocovers/2022_May/acov_tid364735_thumb.jpg)

*Artist: Voorhees
*Album: Chapter III
*Year: 2022
*Genre: Old School Death Metal
*Country: France (IMG:https://metalarea.org/forum/style_images/flags/France.png)
*Format: mp3@CBR320kbps
*Size: 100MB

Tracklist:
1. Voorhees III 05:33
2. Here Comes the Bride 04:59
3. I'm the Man Who Became God (Voorheescious Scourge Version) 06:33
4. Freshly Deceased 04:47
5. Summoning the Demon's Delight 04:24
6. Don't Scream (2022 version) 04:12
7. A Tale from the Dark Side (Mercylhees Version) 04:32
8. They Move.They Breathe.They Suck 04:48
9. Z Killer (Voorhass Version) 03:19
******************************
Total playing time: 43:07




Extended info
Will Drums
See also: Nosphares, ex-Visceral Hate, ex-Nihilism, ex-Funeral Holocaust, ex-Disquiet
Fred Bass (2017-present)
See also: Dehumanize, ex-Lake of Oblivion, Screaming Worms
Chris Vocals, Guitars (2017-present)
See also: ex-Cantar, ex-Corpses, ex-Deterrent, ex-Insane, Metal Militia, ex-Dehumanize
Sébastien Valbrecq Guitars (lead) (2018-present)
See also: ex-Dungortheb


Technical info
(IMG:https://metalarea.org/images/spectrogram/2022_May/8d6e6f6b76eed5ef36a63f54fb3876a6.png)
Input File: VOORHEES - CHAPTER III - 07 A Tale from the Dark Side (Mercylhees Version).mp3
Channels : 2
Sample Rate : 44100
Precision : 16-bit
Duration : 00:04:32.68 = 12025232 samples = 20451.1 CDDA sectors
File Size : 11.0M
Bit Rate : 324k
Sample Encoding: MPEG audio (layer I, II or III)
Comments :
Title=A Tale from the Dark Side (Mercylhees Version)
Artist=VOORHEES
Album=CHAPTER III
Tracknumber=7
Year=2022



Register


Go to the top of the page
  Insert nick Quick quote
+Quote Post
 
Start new topic
Replies (1 - 2)
post May 13 2022, 22:09:15
Post #2

hearer & reader
**************
Group: Металариец
Posts: 10,299
Releases: 211
From: Moscow
On Forums: 14 years 9 months
Thanks: 12531 time(s)
Russian Federation


Register


Thanks:
Go to the top of the page
  Insert nick Quick quote
+Quote Post
post May 14 2022, 04:17:57
Post #3

MDM-Thrash Metal
**************
Group: Металариец
Posts: 11,192
Releases: 1524
From: Одесса
On Forums: 14 years 10 months
Thanks: 36187 time(s)
Ukraine


Скорее Death/Thrash Metal.
Go to the top of the page
  Insert nick Quick quote
+Quote Post

Reply to this topicStart new topic
1 User(s) are reading this topic (1 Guests and 0 Anonymous Users)
0 Members:

 



- Lo-Fi Version Support form
Copyrights and abuse reports form
Time is now: 1st July 2022 - 06:49:16