Welcome Guest ( Log In | Register )

> Releases Upload / Добавление релизов

Добавить релиз тут / Click here to add release
Рекомендованные обменники / Recommended file shares

 
Reply to this topicStart new topic
> Sevensins - Natural Selection [ep] (2020), Symphonic Black/Death Metal (D5)
post May 13 2022, 14:36:10
Post #1

hearer & reader
**************
Group: Металариец
Posts: 10,282
Releases: 211
From: Moscow
On Forums: 14 years 8 months
Thanks: 12413 time(s)
Russian Federation


(IMG:http://metalarea.org/images/audiocovers/2022_May/acov_tid364737_thumb.jpg)

*Artist: Sevensins
*Album: Natural Selection [ep]
*Year: 2020
*Genre: Symphonic Black/Death Metal
*Country: Kazakhstan (IMG:http://metalarea.org/forum/style_images/flags/Kazakhstan.png)
*Format: mp3@CBR320kbps
*Size: 40MB

Tracklist:
1. Requiem Pt. 2 01:46
2. Possessed 04:34
3. Lobotomy 03:33
4. Unit 731 03:29
5. Columbine 03:36
******************************
Total playing time: 16:58


Preview 2

Preview 4

Extended info



Technical info
(IMG:http://metalarea.org/images/spectrogram/2022_May/3e22410bfa4cb602e3bd246f0be19281.png)
Input File: 02 - Possessed.mp3
Channels : 2
Sample Rate : 44100
Precision : 16-bit
Duration : 00:00:59.95 = 2643751 samples = 4496.18 CDDA sectors
File Size : 2.40M
Bit Rate : 320k
Sample Encoding: MPEG audio (layer I, II or III)
Comments :
Title=Possessed
Artist=SevenSins
Album=Natural Selection (EP)
Tracknumber=02
Year=2020
Genre=Symphonic Black/Death Metal



Register


Go to the top of the page
  Insert nick Quick quote
+Quote Post

Reply to this topicStart new topic
1 User(s) are reading this topic (1 Guests and 0 Anonymous Users)
0 Members:

 



- Lo-Fi Version Support form
Copyrights and abuse reports form
Time is now: 29th May 2022 - 13:00:59