Welcome Guest ( Log In | Register )

 
Reply to this topicStart new topic
> Apocalypse Preparation & Armed Jouissance - Apocalypse Preparation/Armed Jouissance [split] (2021), Raw Black Metal | Atmospheric Black Metal
post May 13 2022, 14:41:34
Post #1

Serial Uploader
Group Icon
Group: V.I.P
Posts: 38,932
Releases: 37068
From: Lithuania
On Forums: 14 years 3 months
Thanks: 463013 time(s)
Lithuania


(IMG:https://metalarea.org/images/audiocovers/2022_May/acov_tid364738_thumb.jpg)

*Artist: Apocalypse Preparation & Armed Jouissance
*Album: Apocalypse Preparation/Armed Jouissance [split]
*Year: 2021
*Genre: Raw Black Metal | Atmospheric Black Metal
*Country: Australia (IMG:https://metalarea.org/forum/style_images/flags/Australia.png) | United States (IMG:https://metalarea.org/forum/style_images/flags/United%20States.png)
*Format: mp3@CBR320kbps
*Size: 74MB

Tracklist:
Apocalypse Preparation:
1. When the City is on Fire 02:55
2. Barbarise the Body 03:34
3. Debris of the World 03:10
4. Without Life 03:07
5. Mournful, Eternal 01:49
Armed Jouissance:
6. Cinder Blocks 06:59
7. Shadow Play 06:46
8. We Belong 03:50
******************************
Total playing time: 32:10



Technical info
(IMG:https://metalarea.org/images/spectrogram/2022_May/a55edfd55c046591dc597af09451592b.png)
Input File: 02. Barbarise the Body.mp3
Channels : 2
Sample Rate : 44100
Precision : 16-bit
Duration : 00:03:34.37 = 9453805 samples = 16077.9 CDDA sectors
File Size : 8.67M
Bit Rate : 324k
Sample Encoding: MPEG audio (layer I, II or III)
Comments :
Title=Barbarise the Body
Artist=Apocalypse Preparation
Album=Split
Tracknumber=2
Year=2021



Register


Go to the top of the page
  Insert nick Quick quote
+Quote Post

Reply to this topicStart new topic
1 User(s) are reading this topic (1 Guests and 0 Anonymous Users)
0 Members:

 



- Lo-Fi Version Support form
Copyrights and abuse reports form
Time is now: 25th September 2022 - 09:20:07