Welcome Guest ( Log In | Register )

 
Reply to this topicStart new topic
> Apocalypse Preparation & Starvation Entity - Razor Worship [split] (2021), Raw Black Metal | Raw Black Metal/Noise
post May 13 2022, 14:55:23
Post #1

Serial Uploader
Group Icon
Group: V.I.P
Posts: 38,748
Releases: 36887
From: Lithuania
On Forums: 14 years 2 months
Thanks: 458381 time(s)
Lithuania


(IMG:https://metalarea.org/images/audiocovers/2022_May/acov_tid364739_thumb.png)

*Artist: Apocalypse Preparation & Starvation Entity
*Album: Razor Worship [split]
*Year: 2021
*Genre: Raw Black Metal | Raw Black Metal/Noise
*Country: Australia (IMG:https://metalarea.org/forum/style_images/flags/Australia.png) | Canada (IMG:https://metalarea.org/forum/style_images/flags/Canada.png)
*Format: mp3@CBR320kbps
*Size: 63MB

Tracklist:
Apocalypse Preparation:
1. I 01:16
2. II 02:25
3. III 02:38
4. IV 03:20
5. V 03:04
Starvation Entity:
6. Illusion of Doubles 01:37
7. Effigy Crawling 02:35
8. Rotting Gold Armor 02:01
9. Swollen Altar 02:56
10. Locusts With Scorpion Tails 04:36
******************************
Total playing time: 26:28


(IMG:https://metalarea.org/images/youtube.png)

Technical info
(IMG:https://metalarea.org/images/spectrogram/2022_May/479651502d8cd1665530e10a8a93a4d1.png)
Input File: 02. II.mp3
Channels : 2
Sample Rate : 44100
Precision : 16-bit
Duration : 00:02:25.90 = 6434234 samples = 10942.6 CDDA sectors
File Size : 5.97M
Bit Rate : 327k
Sample Encoding: MPEG audio (layer I, II or III)
Comments :
Title=II
Artist=Apocalypse Preparation
Album=Razor Worship
Tracknumber=2
Year=2021



Register


Go to the top of the page
  Insert nick Quick quote
+Quote Post

Reply to this topicStart new topic
1 User(s) are reading this topic (1 Guests and 0 Anonymous Users)
0 Members:

 



- Lo-Fi Version Support form
Copyrights and abuse reports form
Time is now: 11th August 2022 - 18:17:06