Welcome Guest ( Log In | Register )

> Releases Upload / Добавление релизов

Добавить релиз тут / Click here to add release
Рекомендованные обменники / Recommended file shares

 
Reply to this topicStart new topic
> Homeskin & Moldmouth - Homeskin/Moldmouth [split] (2022), Avant-Garde Black Metal/Grindcore | Avant-Garde Black Metal (D8)
post May 13 2022, 15:09:17
Post #1

Serial Uploader
Group Icon
Group: V.I.P
Posts: 38,607
Releases: 36751
From: Lithuania
On Forums: 14 years 4 weeks
Thanks: 456076 time(s)
Lithuania


(IMG:https://metalarea.org/images/audiocovers/2022_May/acov_tid364740_thumb.jpg)

*Artist: Homeskin & Moldmouth
*Album: Homeskin/Moldmouth [split]
*Year: 2022
*Genre: Avant-Garde Black Metal/Grindcore | Avant-Garde Black Metal
*Country: United States (IMG:https://metalarea.org/forum/style_images/flags/United%20States.png) | United States (IMG:https://metalarea.org/forum/style_images/flags/United%20States.png)
*Format: mp3@CBR320kbps
*Size: 47MB

Tracklist:
Homeskin:
1. Time as Addiction 04:11
2. Fungal Sweets 03:07
3. Warped Lids 03:13
Moldmouth:
4. Extruding.psychic.objects.into.the.material.universe 09:32
******************************
Total playing time: 20:03



Technical info
(IMG:https://metalarea.org/images/spectrogram/2022_May/1812440c3236cbb25c721572cf0ab60c.png)
Input File: 03. Warped Lids.mp3
Channels : 2
Sample Rate : 44100
Precision : 16-bit
Duration : 00:03:13.68 = 8541376 samples = 14526.1 CDDA sectors
File Size : 7.93M
Bit Rate : 327k
Sample Encoding: MPEG audio (layer I, II or III)
Comments :
Title=Warped Lids
Artist=Homeskin
Album=Homeskin / moldmouth
Tracknumber=3
Year=2022



Register


Go to the top of the page
  Insert nick Quick quote
+Quote Post

Reply to this topicStart new topic
1 User(s) are reading this topic (1 Guests and 0 Anonymous Users)
0 Members:

 



- Lo-Fi Version Support form
Copyrights and abuse reports form
Time is now: 5th July 2022 - 21:56:32