Welcome Guest ( Log In | Register )

 
Reply to this topicStart new topic
> Oxidised Razor & Fluids - Deceased/Smile And The World Smiles With You [split] (2021), Death Metal/Goregrind | Brutal Death Metal/Grindcore (D)(D12)
post May 13 2022, 15:19:08
Post #1

Правь статус, ####!111
**************
Group: Металариец
Posts: 3,223
Releases: 1734
On Forums: 11 years 8 months
Thanks: 33714 time(s)
Russian Federation


(IMG:https://metalarea.org/images/audiocovers/2022_May/acov_tid364741_thumb.jpg)

*Artist: Oxidised Razor & Fluids
*Album: Deceased/Smile And The World Smiles With You [split]
*Year: 2021
*Genre: Death Metal/Goregrind | Brutal Death Metal/Grindcore
*Country: Mexico (IMG:https://metalarea.org/forum/style_images/flags/Mexico.png) | United States (IMG:https://metalarea.org/forum/style_images/flags/United%20States.png)
*Format: mp3@CBR320kbps
*Size: 50MB

Tracklist:
Oxidised Razor:
1.Deceased 04:06
2.Cannibalism 03:16
3.Visceras Corroidas (Krankhaft Cover) 01:07
FLuids:
4.Bound 01:54
5.Gagged 01:30
6.Injected 05:16
******************************
Total playing time: 17:09



Extended info
+Scans


Technical info
(IMG:https://metalarea.org/images/spectrogram/2022_May/9cf3c4a4a940d568e2c4332f6dc871bb.png)
Input File: 02 - Cannibalism.mp3
Channels : 2
Sample Rate : 44100
Precision : 16-bit
Duration : 00:03:19.12 = 8781148 samples = 14933.9 CDDA sectors
File Size : 8.40M
Bit Rate : 338k
Sample Encoding: MPEG audio (layer I, II or III)
Comments :
Title=Cannibalism
Artist=Oxidised Razor
Album=Deceased / Smile and the World Smiles with You
Tracknumber=02
Year=2021
Genre=Goregrind



Register


Go to the top of the page
  Insert nick Quick quote
+Quote Post

Reply to this topicStart new topic
2 User(s) are reading this topic (2 Guests and 0 Anonymous Users)
0 Members:

 



- Lo-Fi Version Support form
Copyrights and abuse reports form
Time is now: 15th August 2022 - 02:14:28