Welcome Guest ( Log In | Register )

 
Reply to this topicStart new topic
> Vigalante - Last Call For Humanity [demo] (1991), Thrash Metal
post May 13 2022, 15:21:03
Post #1

Подвал
**************
Group: Металариец
Posts: 17,405
Releases: 9960
From: Far East (Khabarovsk)
On Forums: 13 years 5 months
Thanks: 115453 time(s)
Russian Federation


(IMG:http://metalarea.org/images/audiocovers/2022_May/acov_tid364742_thumb.JPG)

*Artist: Vigalante
*Album: Last Call For Humanity [demo]
*Year: 1991
*Genre: Thrash Metal
*Country: Norway (IMG:http://metalarea.org/forum/style_images/flags/Norway.png)
*Format: mp3@CBR192kbps
*Size: 33MB

Tracklist:
1. Sunconscious Hate 04:17
2. If It Walks Like A Duck 02:50
3. Every Other Word I Say (Is Fuck) 03:00
4. Planetary Suicide 03:26
5. Society Submerged 03:47
6. Save Your Breath 03:18
7. Point Blank 03:36
******************************
Total playing time: 24:14

Extended info
Recorded in June/August 1991.


Technical info
(IMG:http://metalarea.org/images/spectrogram/2022_May/4d41b13bdb93444e8853fa48d9e427d3.png)
Input File: 01-Subconscious Hate.mp3
Channels : 2
Sample Rate : 44100
Precision : 16-bit
Duration : 00:04:17.45 = 11353501 samples = 19308.7 CDDA sectors
File Size : 6.18M
Bit Rate : 192k
Sample Encoding: MPEG audio (layer I, II or III)
Comments :
Title=Subconscious Hate
Artist=Vigalante (Nor)
Album=Last Call For Humanity (Demo)
Tracknumber=01
Year=1991
Genre=Thrash Metal



Register


Go to the top of the page
  Insert nick Quick quote
+Quote Post

Reply to this topicStart new topic
1 User(s) are reading this topic (1 Guests and 0 Anonymous Users)
0 Members:

 



- Lo-Fi Version Support form
Copyrights and abuse reports form
Time is now: 5th July 2022 - 23:51:28