Welcome Guest ( Log In | Register )

> Releases Upload / Добавление релизов

Добавить релиз тут / Click here to add release
Рекомендованные обменники / Recommended file shares

 
Reply to this topicStart new topic
> Primordial Serpent - Tales From The Northern Vastlands (2022), Black Metal (D8)
post May 13 2022, 15:27:31
Post #1

Serial Uploader
Group Icon
Group: V.I.P
Posts: 38,607
Releases: 36751
From: Lithuania
On Forums: 14 years 3 weeks
Thanks: 456053 time(s)
Lithuania


(IMG:https://metalarea.org/images/audiocovers/2022_May/acov_tid364743_thumb.jpg)

*Artist: Primordial Serpent
*Album: Tales From The Northern Vastlands
*Year: 2022
*Genre: Black Metal
*Country: Canada (IMG:https://metalarea.org/forum/style_images/flags/Canada.png)
*Format: mp3@CBR320kbps
*Size: 76MB

Tracklist:
1. Red River Uprising 07:49
2. Enslaved by Followers of God 04:28
3. Burning into the Night 04:52
4. Lies of Benevolence 04:51
5. Spirits of Unmarked Graves 05:38
6. Guiding Lights in Darkened Skies 05:27
******************************
Total playing time: 33:05


Preview 2


(IMG:https://metalarea.org/images/youtube.png)

Technical info
(IMG:https://metalarea.org/images/spectrogram/2022_May/9d6eabc7bcc12bb44a373375daddf7e9.png)
Input File: 05. Spirits of Unmarked Graves.mp3
Channels : 2
Sample Rate : 44100
Precision : 16-bit
Duration : 00:05:38.36 = 14921500 samples = 25376.7 CDDA sectors
File Size : 13.6M
Bit Rate : 321k
Sample Encoding: MPEG audio (layer I, II or III)
Comments :
Title=Spirits of Unmarked Graves
Artist=Primordial Serpent
Album=Tales From the Northern Vastlands
Tracknumber=1
Year=2022



Register


Go to the top of the page
  Insert nick Quick quote
+Quote Post

Reply to this topicStart new topic
1 User(s) are reading this topic (1 Guests and 0 Anonymous Users)
0 Members:

 



- Lo-Fi Version Support form
Copyrights and abuse reports form
Time is now: 5th July 2022 - 07:33:11