Welcome Guest ( Log In | Register )

> Releases Upload / Добавление релизов

Добавить релиз тут / Click here to add release
Рекомендованные обменники / Recommended file shares

> Exterminas - Attain Salvation (2022), Black Metal (D4)
post May 13 2022, 15:51:26
Post #1

I hate you all
**************
Group: Металариец
Posts: 2,973
Releases: 94
From: Ukraine
On Forums: 15 years 1 month
Thanks: 7533 time(s)
Ukraine


(IMG:https://metalarea.org/images/audiocovers/2022_May/acov_tid364746_thumb.jpg)

*Artist: Exterminas
*Album: Attain Salvation
*Year: 2022
*Genre: Black Metal
*Country: Italy (IMG:https://metalarea.org/forum/style_images/flags/Italy.png)
*Format: mp3@CBR320kbps
*Size: 81MB

Tracklist:
1. Shava Samskara 04:52
2. Aghori 04:53
3. Attain Salvation 05:04
4. Essence of Dominion 05:26
5. Otherworld 04:30
6. Down to Cenotes 04:49
7. Sati 04:40
8. Towers of Silence 05:19
******************************
Total playing time: 39:33

Technical info
(IMG:https://metalarea.org/images/spectrogram/2022_May/026caaf4956cff7f23a7e3a63114e785.png)
Input File: 03 - Attain Salvation.mp3
Channels : 2
Sample Rate : 44100
Precision : 16-bit
Duration : 00:05:04.00 = 13406400 samples = 22800 CDDA sectors
File Size : 12.4M
Bit Rate : 326k
Sample Encoding: MPEG audio (layer I, II or III)
Comments :
Title=Attain Salvation
Artist=Exterminas
Album=Attain Salvation
Tracknumber=3
Year=2022-05-04
Genre=Metal
Discnumber=1



Register


Go to the top of the page
  Insert nick Quick quote
+Quote Post
 
Start new topic
Replies (1 - 1)
post May 13 2022, 21:02:33
Post #2

I hate you all
**************
Group: Металариец
Posts: 2,973
Releases: 94
From: Ukraine
On Forums: 15 years 1 month
Thanks: 7533 time(s)
Ukraine


Go to the top of the page
  Insert nick Quick quote
+Quote Post

Reply to this topicStart new topic
1 User(s) are reading this topic (1 Guests and 0 Anonymous Users)
0 Members:

 



- Lo-Fi Version Support form
Copyrights and abuse reports form
Time is now: 7th July 2022 - 11:59:58