Welcome Guest ( Log In | Register )

 
Reply to this topicStart new topic
> Gate - Released [demo] (1992), Melodic Thrash Metal (D)
post May 13 2022, 15:55:18
Post #1

Подвал
**************
Group: Металариец
Posts: 17,405
Releases: 9960
From: Far East (Khabarovsk)
On Forums: 13 years 5 months
Thanks: 115453 time(s)
Russian Federation


(IMG:http://metalarea.org/images/audiocovers/2022_May/acov_tid364747_thumb.JPG)

*Artist: Gate
*Album: Released [demo]
*Year: 1992
*Genre: Melodic Thrash Metal
*Country: Poland (IMG:http://metalarea.org/forum/style_images/flags/Poland.png)
*Format: mp3@CBR192kbps
*Size: 31MB

Tracklist:
1. Blamed 06:13
2. Summerland 06:05
3. Before Final 03:31
4. Wild Of Soul 07:56
******************************
Total playing time: 23:45

Extended info
English version of "Uwolniony" demo.


Technical info
(IMG:http://metalarea.org/images/spectrogram/2022_May/1a2677112aebdc72c69da19a39b810cf.png)
Input File: 01-Blamed.mp3
Channels : 2
Sample Rate : 44100
Precision : 16-bit
Duration : 00:06:13.49 = 16470865 samples = 28011.7 CDDA sectors
File Size : 8.96M
Bit Rate : 192k
Sample Encoding: MPEG audio (layer I, II or III)
Comments :
Title=Blamed
Artist=Gate (Pol)
Album=Released (Demo)
Tracknumber=01
Year=1992
Genre=Metal



Register


Go to the top of the page
  Insert nick Quick quote
+Quote Post

Reply to this topicStart new topic
1 User(s) are reading this topic (1 Guests and 0 Anonymous Users)
0 Members:

 



- Lo-Fi Version Support form
Copyrights and abuse reports form
Time is now: 5th July 2022 - 23:12:01